天堂湾[简体字幕].Paradise.Cove.2021.1080p.BluRay.DTS.x265-10bit-ENTHD 7.48GB

版主小s 3月前 145

✔资源类型:暂未分类   ✔电影年份:2021   ✔电影地区:欧美   ✔电影分类:惊悚

◎译  名 天堂湾
◎片  名 Paradise Cove
◎年  代 2021
◎产  地 美国
◎类  别 惊悚
◎语  言 英语
◎上映日期 2021-02-12(美国)
◎IMDb链接 https://www.imdb.com/title/tt9690790/
◎豆瓣链接 https://movie.douban.com/subject/35331469/
◎演  员 托德·格林奈尔 Todd Grinnell (id:1000596)
       米娜·苏瓦丽 Mena Suvari (id:1004579)

◎简  介
  A contractor and his wife move to Malibu to flip his mother's beach house and are terrorized by the deranged homeless lady living under the house.
  1. ##### MediaInfo ######
  2. General
  3. Unique ID                                : 308177121344084322819114781345993202274 (0xE7D8C12E972468DB3124315C08F01A62)
  4. Complete name                            : Paradise.Cove.2021.1080p.BluRay.DTS.x265-10bit-ENTHD.mkv
  5. Format                                   : Matroska
  6. Format version                           : Version 4
  7. File size                                : 7.48 GiB
  8. Duration                                 : 1 h 43 min
  9. Overall bit rate                         : 10.3 Mb/s
  10. Movie name                               : Paradise Cove 2021 1080p BluRay DTS x265-10bit-HDS
  11. Encoded date                             : UTC 2022-06-08 17:15:55
  12. Writing application                      : mkvmerge v38.0.0 ('The Silent Type') 64-bit
  13. Writing library                          : libebml v1.3.9 + libmatroska v1.5.2
  14. Video
  15. ID                                       : 1
  16. Format                                   : HEVC
  17. Format/Info                              : High Efficiency Video Coding
  18. Format profile                           : Main 10@L5.1@High
  19. Codec ID                                 : V_MPEGH/ISO/HEVC
  20. Duration                                 : 1 h 43 min
  21. Bit rate                                 : 8 778 kb/s
  22. Width                                    : 1 920 pixels
  23. Height                                   : 794 pixels
  24. Display aspect ratio                     : 2.40:1
  25. Frame rate mode                          : Constant
  26. Frame rate                               : 23.976 (24000/1001/53354) FPS
  27. Color space                              : YUV
  28. Chroma subsampling                       : 4:2:0
  29. Bit depth                                : 10 bits
  30. Bits/(Pixel*Frame)                       : 0.240
  31. Stream size                              : 6.37 GiB (85%)
  32. Title                                    : billpotter@HDSky
  33. Writing library                          : x265 - H.265/HEVC codec
  34. Default                                  : Yes
  35. Forced                                   : No
  36. Audio
  37. ID                                       : 2
  38. Format                                   : DTS
  39. Format/Info                              : Digital Theater Systems
  40. Codec ID                                 : A_DTS
  41. Duration                                 : 1 h 43 min
  42. Bit rate mode                            : Constant
  43. Bit rate                                 : 1 509 kb/s
  44. Channel(s)                               : 6 channels
  45. Channel layout                           : C L R Ls Rs LFE
  46. Sampling rate                            : 48.0 kHz
  47. Frame rate                               : 93.750 FPS (512 SPF)
  48. Bit depth                                : 24 bits
  49. Compression mode                         : Lossy
  50. Stream size                              : 1.09 GiB (15%)
  51. Title                                    : German
  52. Language                                 : German
  53. Default                                  : Yes
  54. Forced                                   : No
  55. Text
  56. ID                                       : 3
  57. Format                                   : PGS
  58. Muxing mode                              : zlib
  59. Codec ID                                 : S_HDMV/PGS
  60. Codec ID/Info                            : Picture based subtitle format used on BDs/HD-DVDs
  61. Duration                                 : 1 h 41 min
  62. Bit rate                                 : 24.6 kb/s
  63. Count of elements                        : 2382
  64. Stream size                              : 17.9 MiB (0%)
  65. Title                                    : CHS
  66. Language                                 : Chinese
  67. Default                                  : Yes
  68. Forced                                   : No
  69. Menu
  70. 00:00:00.000                             : en:Chapter 01
  71. 00:09:56.930                             : en:Chapter 02
  72. 00:17:36.264                             : en:Chapter 03
  73. 00:27:49.293                             : en:Chapter 04
  74. 00:36:38.363                             : en:Chapter 05
  75. 00:44:50.229                             : en:Chapter 06
  76. 00:55:55.644                             : en:Chapter 07
  77. 01:04:40.376                             : en:Chapter 08
  78. 01:11:46.177                             : en:Chapter 09
  79. 01:20:56.852                             : en:Chapter 10
  80. 01:31:18.473                             : en:Chapter 11
  81. 01:39:42.977                             : en:Chapter 12





此处一般会放置磁力链或种子下载链接,不过此链接需要注册会员才能看到,点击“立即注册”
磁力链下载【下载链接仅对注册会员开放,登陆后可见】
BT9527电影天堂 1、BT9527电影天堂提供的BT文件均来源于互联网抓取,只供网友学习交流、技术提升使用。
2、我们遵守BitTorrent点对点协议原则,任何版权问题请联系原资源发布商,我们不处理任何版权纠纷,谢谢!如有争议请联系邮箱:BT9527#hotmail.com(#换成@)
3、如果您发现某页面或地址有错误,请联系站长邮箱BT9527#hotmail.com(#换成@),我们会尽快处理。您的热心是对BT9527电影天堂最大的支持。
4、本站建议去正规影院观看电影以支持电影行业发展。
最新回复 (0)

你可以在 登录 or 注册 后,对此帖发表评论!

返回
发新帖