生之欲[中英字幕].Ikiru.1952.BluRay.1080p.x265.10bit-MiniHD 8.92GB

版主小s 20天前 483

✔资源类型:暂未分类   ✔电影年份:更 早   ✔电影地区:日本   ✔电影分类:剧情

◎译  名 生之欲 / 留芳颂(港) / 活下去 / To Live / Living / Ikiru
◎片  名 生きる
◎年  代 1952
◎产  地 日本
◎类  别 剧情
◎语  言 日语
◎上映日期 1952-10-09(日本)
◎IMDb链接 https://www.imdb.com/title/tt0044741/
◎豆瓣评分 9.2/10 (33997人评价)
◎豆瓣链接 https://movie.douban.com/subject/1293847/
◎片  长 143分钟
◎导  演 黑泽明 Akira Kurosawa (id:1054529)
◎编  剧 黑泽明 Akira Kurosawa (id:1054529)
       桥本忍 Shinobu Hashimoto (id:1094656)
       小国英雄 Hideo Oguni (id:1131182)
◎演  员 志村乔 Takashi Shimura (id:1032411)
       日守新一 Shin'ichi Himori (id:1091281)
       田中春男 Haruo Tanaka (id:1003626)
       千秋实 Minoru Chiaki (id:1023321)
       小田切美喜 Miki Odagiri (id:1011049)
       左卜全 Bokuzen Hidari (id:1033163)
       山田巳之助 Minosuke Yamada (id:1343983)
       藤原釜足 Kamatari Fujiwara (id:1016877)
       小堀诚 Makoto Kobori (id:1034762)
       金子信雄 Nobuo Kaneko (id:1003533)
       中村伸郎 Nobuo Nakamura (id:1051581)
       渡边笃 Atsushi Watanabe (id:1195267)
       木村功 Isao Kimura (id:1012687)
       清水将夫 Masao Shimizu (id:1029942)
       伊藤雄之助 Y?nosuke It? (id:1025631)
       浦边粂子 Kumeko Urabe (id:1029657)
       三好荣子 Eiko Miyoshi (id:1001843)
       本间文子 Noriko Honma (id:1037962)
       丹阿弥谷津子 Yatsuko Tan'ami (id:1157583)
       菅井琴 Kin Sugai (id:1034236)
       南美江 Yoshie Minami (id:1030991)
       阿部九州男 Kusuo Abe (id:1024861)
       永井智雄 Tomoo Nagai (id:1022326)
       宫口精二 Seiji Miyaguchi (id:1041790)
       加东大介 Daisuke Kat? (id:1008093)
       稻垣三郎 Hiroshi Hayashi (id:1332424)
       村上冬树 Fuyuki Murakami (id:1017175)
       青野平义 Hirayoshi Aono (id:1026736)
       小川虎之助 Toranosuke Ogawa (id:1035726)
       深见泰三 Taiz? Fukami (id:1349479)
       长滨藤夫 Fujio Nagahama (id:1040198)
       谷晃 Akira Tani (id:1030335)
       市村俊幸 Toshiyuki Ichimura (id:1040457)
       夏木顺平 Junpei Natsuki (id:1022328)
       堺左千夫 Sachio Sakai (id:1008508)
       出云八重子 Yaeko Izumo (id:1359350)
       水谷八重子 Yaeko Mizutani (id:1338910)
       早坂文雄 Fumio Hayasaka (id:1025658)

◎简  介
  市政府市民科科长渡边勘治(志村乔饰)是名近三十年全勤的模范公务员,然而他和同事们每天忙碌却人浮于事,不知道自己在忙些什么。一帮妇女联合到市政府申请填平社区附近的臭水池,在上面建造个小公园。市民科的接待人员告诉她们要把问题反映到土木课,公园课把她们推到建设科……,申请书转 了一圈后,又被踢回市民科。                                    
                                一个月后,渡边因身体不适,去医院被查出胃癌,时日无多。渡边回到家,感到孤独无助,儿子(金子信雄饰)只想着用老人的退休金及储蓄,到外面另辟小家庭。绝望中的渡边没有去上班,借酒浇愁。之后,请辞的女科员小田(小田切美善饰)给了渡边以启示。他打起精神,亲自督促建设社区公园。几个月后……
  1. ##### MediaInfo ######
  2. General
  3. Unique ID                                : 190264357291393295540969517240984764874 (0x8F239511FCA6D2DB83ED22A702D381CA)
  4. Complete name                            : Ikiru.1952.BluRay.1080p.x265.10bit-MiniHD.mkv
  5. Format                                   : Matroska
  6. Format version                           : Version 4
  7. File size                                : 8.92 GiB
  8. Duration                                 : 2 h 22 min
  9. Overall bit rate                         : 8 926 kb/s
  10. Encoded date                             : UTC 2017-08-31 10:39:29
  11. Writing application                      : mkvmerge v11.0.0 ('Alive') 64bit
  12. Writing library                          : libebml v1.3.4 + libmatroska v1.4.5
  13. Video
  14. ID                                       : 1
  15. Format                                   : HEVC
  16. Format/Info                              : High Efficiency Video Coding
  17. Codec ID                                 : V_MPEGH/ISO/HEVC
  18. Duration                                 : 2 h 22 min
  19. Bit rate                                 : 8 571 kb/s
  20. Width                                    : 1 468 pixels
  21. Height                                   : 1 080 pixels
  22. Display aspect ratio                     : 4:3
  23. Frame rate mode                          : Constant
  24. Frame rate                               : 23.976 (24000/1001/53354) FPS
  25. Bits/(Pixel*Frame)                       : 0.225
  26. Stream size                              : 8.56 GiB (96%)
  27. Default                                  : Yes
  28. Forced                                   : No
  29. Audio
  30. ID                                       : 2
  31. Format                                   : AC-3
  32. Format/Info                              : Audio Coding 3
  33. Commercial name                          : Dolby Digital
  34. Codec ID                                 : A_AC3
  35. Duration                                 : 2 h 22 min
  36. Bit rate mode                            : Constant
  37. Bit rate                                 : 320 kb/s
  38. Channel(s)                               : 2 channels
  39. Channel layout                           : L R
  40. Sampling rate                            : 48.0 kHz
  41. Frame rate                               : 31.250 FPS (1536 SPF)
  42. Compression mode                         : Lossy
  43. Delay relative to video                  : 1 s 0 ms
  44. Stream size                              : 327 MiB (4%)
  45. Language                                 : Japanese
  46. Service kind                             : Complete Main
  47. Default                                  : Yes
  48. Forced                                   : No
  49. Text #1
  50. ID                                       : 3
  51. Format                                   : PGS
  52. Muxing mode                              : zlib
  53. Codec ID                                 : S_HDMV/PGS
  54. Codec ID/Info                            : Picture based subtitle format used on BDs/HD-DVDs
  55. Duration                                 : 2 h 21 min
  56. Bit rate                                 : 11.6 kb/s
  57. Count of elements                        : 2286
  58. Stream size                              : 11.8 MiB (0%)
  59. Language                                 : English
  60. Default                                  : Yes
  61. Forced                                   : No
  62. Text #2
  63. ID                                       : 4
  64. Format                                   : PGS
  65. Muxing mode                              : zlib
  66. Codec ID                                 : S_HDMV/PGS
  67. Codec ID/Info                            : Picture based subtitle format used on BDs/HD-DVDs
  68. Duration                                 : 2 h 21 min
  69. Bit rate                                 : 22.5 kb/s
  70. Count of elements                        : 3182
  71. Stream size                              : 22.8 MiB (0%)
  72. Language                                 : Chinese
  73. Default                                  : No
  74. Forced                                   : No
  75. Menu
  76. 00:00:00.000                             : en:Chapter 01
  77. 00:11:40.332                             : en:Chapter 02
  78. 00:22:06.191                             : en:Chapter 03
  79. 00:32:53.371                             : en:Chapter 04
  80. 00:46:57.281                             : en:Chapter 05
  81. 00:57:30.447                             : en:Chapter 06
  82. 01:07:00.583                             : en:Chapter 07
  83. 01:19:17.452                             : en:Chapter 08
  84. 01:32:19.000                             : en:Chapter 09
  85. 01:48:46.720                             : en:Chapter 10
  86. 01:59:16.816                             : en:Chapter 11
  87. 02:12:37.282                             : en:Chapter 12





此处一般会放置磁力链或种子下载链接,不过此链接需要注册会员才能看到,点击“立即注册”
磁力链下载【下载链接仅对注册会员开放,登陆后可见】
BT9527电影天堂 1、BT9527电影天堂提供的BT文件均来源于互联网抓取,只供网友学习交流、技术提升使用。
2、我们遵守BitTorrent点对点协议原则,任何版权问题请联系原资源发布商,我们不处理任何版权纠纷,谢谢!如有争议请联系邮箱:BT9527#hotmail.com(#换成@)
3、如果您发现某页面或地址有错误,请联系站长邮箱BT9527#hotmail.com(#换成@),我们会尽快处理。您的热心是对BT9527电影天堂最大的支持。
4、本站建议去正规影院观看电影以支持电影行业发展。
最新回复 (0)

你可以在 登录 or 注册 后,对此帖发表评论!

返回
发新帖