白发魔女2[国语音轨/中英字幕].The.Bride.with.White.Hair.2.1993.BluRay.1080p.x265.10bit.2Audio-MiniHD 4.64GB

版主小s 11天前 62

✔资源类型:暂未分类   ✔电影年份:更 早   ✔电影地区:香港   ✔电影分类:动作

◎译  名 白发魔女2 / 白发魔女传2 / The Bride with White Hair 2
◎片  名 白髮魔女2
◎年  代 1993
◎产  地 中国香港
◎类  别 动作 / 爱情 / 奇幻
◎语  言 粤语
◎上映日期 1993-12-22(中国香港)
◎IMDb链接 https://www.imdb.com/title/tt0106343/
◎豆瓣评分 6.6/10 (19845人评价)
◎豆瓣链接 https://movie.douban.com/subject/1294564/
◎片  长 80 分钟
◎导  演 胡大为 David Wu (id:1301332)
◎编  剧 杜国威 Raymond To (id:1299321)
       于仁泰 Ronny Yu (id:1301565)
       胡大为 David Wu (id:1301332)
◎演  员 林青霞 Brigitte Lin (id:1044746)
       陈锦鸿 Sunny Chan (id:1275332)
       钟丽缇 Christy Chung (id:1050179)
       万绮雯 Yee-Man Man (id:1029477)
       张国荣 Leslie Cheung (id:1003494)
       钟淑慧 Lily Chung (id:1006013)
       孙国豪 Richard Sun (id:1340005)
       李香琴 Heung Kam Lee (id:1275009)
       罗兰 Lan Law (id:1054340)
       陶君薇 Ruth Winona Tao (id:1324692)
       张国梁 Kwok Leung Cheung (id:1349966)
       杨德毅 Jacky Yeung (id:1164248)
       黄新 Sun Wong (id:1342013)
       余俊峰 Chun-Fung Yu (id:1414141)
       高雄 Eddy Ko (id:1313798)
       杨菁菁 Ching Ching Yeung (id:1368937)
       李永洪 Tommie Lee Wing-Hung (id:1411665)
       高志森 Clifton Ko (id:1281025)
       罗伟佳 Wai-Kai Law (id:1435881)
       于仁泰 Ronny Yu (id:1301565)
       黄百鸣 Raymond Wong (id:1275277)
       王菲 Faye Wong (id:1004858)
       胡大为 David Wu (id:1301332)
       雷楚雄 Bill Lui (id:1290436)
       张叔平 William Chang (id:1274369)
       和田惠美 Emi Wada (id:1033613)
       朱日红 Yat-Hung Chu (id:1330740)
       罗礼贤 Bruce Law (id:1289542)

◎简  介
  自从邪教魔女练霓裳(林青霞饰)与武当首徒卓一航(张国荣饰)分道扬镳之后,从此销声匿迹。但数年之后魔女却已走火入魔,建立魔宫,并练得天下无敌奇功,四处杀戮正派人士。卓却独自呆守于雪峰顶,待奇花盛开之日再觅爱人芳踪,让昔日爱人重生黑发。                                    
                                适逢武当后人封俊杰(陈锦鸿饰)迎娶点苍派玉女虞琴(万绮雯饰)之夜,魔女再现,杀宾客掳新娘,杰为救虞琴不幸身负重伤。武当派除杰与小师弟绿痕之外,亦无人幸免。                                    
                                杰与绿痕遂联合各派小侠,准备向魔女的魔宫进攻,营救爱妻,誓杀魔女。
  1. ##### MediaInfo ######
  2. General
  3. Unique ID                                : 214772873616194899349050075609962358725 (0xA193C037F6F217C6BCC0EC4700EBA7C5)
  4. Complete name                            : The.Bride.with.White.Hair.2.1993.BluRay.1080p.x265.10bit.2Audio-MiniHD.mkv
  5. Format                                   : Matroska
  6. Format version                           : Version 4
  7. File size                                : 4.64 GiB
  8. Duration                                 : 1 h 20 min
  9. Overall bit rate                         : 8 242 kb/s
  10. Encoded date                             : UTC 2017-05-26 01:56:34
  11. Writing application                      : mkvmerge v11.0.0 ('Alive') 64bit
  12. Writing library                          : libebml v1.3.4 + libmatroska v1.4.5
  13. Video
  14. ID                                       : 1
  15. Format                                   : HEVC
  16. Format/Info                              : High Efficiency Video Coding
  17. Codec ID                                 : V_MPEGH/ISO/HEVC
  18. Duration                                 : 1 h 20 min
  19. Bit rate                                 : 7 438 kb/s
  20. Width                                    : 1 920 pixels
  21. Height                                   : 1 080 pixels
  22. Display aspect ratio                     : 16:9
  23. Frame rate mode                          : Constant
  24. Frame rate                               : 24.000 FPS
  25. Bits/(Pixel*Frame)                       : 0.149
  26. Stream size                              : 4.18 GiB (90%)
  27. Default                                  : Yes
  28. Forced                                   : No
  29. Audio #1
  30. ID                                       : 2
  31. Format                                   : AC-3
  32. Format/Info                              : Audio Coding 3
  33. Commercial name                          : Dolby Digital
  34. Codec ID                                 : A_AC3
  35. Duration                                 : 1 h 20 min
  36. Bit rate mode                            : Constant
  37. Bit rate                                 : 320 kb/s
  38. Channel(s)                               : 2 channels
  39. Channel layout                           : L R
  40. Sampling rate                            : 48.0 kHz
  41. Frame rate                               : 31.250 FPS (1536 SPF)
  42. Compression mode                         : Lossy
  43. Stream size                              : 184 MiB (4%)
  44. Language                                 : Chinese
  45. Service kind                             : Complete Main
  46. Default                                  : Yes
  47. Forced                                   : No
  48. Audio #2
  49. ID                                       : 3
  50. Format                                   : AC-3
  51. Format/Info                              : Audio Coding 3
  52. Commercial name                          : Dolby Digital
  53. Codec ID                                 : A_AC3
  54. Duration                                 : 1 h 20 min
  55. Bit rate mode                            : Constant
  56. Bit rate                                 : 320 kb/s
  57. Channel(s)                               : 2 channels
  58. Channel layout                           : L R
  59. Sampling rate                            : 48.0 kHz
  60. Frame rate                               : 31.250 FPS (1536 SPF)
  61. Compression mode                         : Lossy
  62. Stream size                              : 184 MiB (4%)
  63. Language                                 : Chinese
  64. Service kind                             : Complete Main
  65. Default                                  : No
  66. Forced                                   : No
  67. Text #1
  68. ID                                       : 4
  69. Format                                   : PGS
  70. Muxing mode                              : zlib
  71. Codec ID                                 : S_HDMV/PGS
  72. Codec ID/Info                            : Picture based subtitle format used on BDs/HD-DVDs
  73. Language                                 : Chinese
  74. Default                                  : Yes
  75. Forced                                   : No
  76. Text #2
  77. ID                                       : 5
  78. Format                                   : PGS
  79. Muxing mode                              : zlib
  80. Codec ID                                 : S_HDMV/PGS
  81. Codec ID/Info                            : Picture based subtitle format used on BDs/HD-DVDs
  82. Language                                 : Chinese
  83. Default                                  : No
  84. Forced                                   : No
  85. Text #3
  86. ID                                       : 6
  87. Format                                   : PGS
  88. Muxing mode                              : zlib
  89. Codec ID                                 : S_HDMV/PGS
  90. Codec ID/Info                            : Picture based subtitle format used on BDs/HD-DVDs
  91. Language                                 : English
  92. Default                                  : No
  93. Forced                                   : No
  94. Menu
  95. 00:00:00.000                             : en:Chapter 01
  96. 00:03:51.791                             : en:Chapter 02
  97. 00:16:54.250                             : en:Chapter 03
  98. 00:24:06.958                             : en:Chapter 04
  99. 00:27:31.833                             : en:Chapter 05
  100. 00:32:52.375                             : en:Chapter 06
  101. 00:39:54.166                             : en:Chapter 07
  102. 00:42:19.958                             : en:Chapter 08
  103. 00:50:06.375                             : en:Chapter 09
  104. 01:00:01.041                             : en:Chapter 10
  105. 01:11:17.541                             : en:Chapter 11
  106. 01:17:07.708                             : en:Chapter 12





此处一般会放置磁力链或种子下载链接,不过此链接需要注册会员才能看到,点击“立即注册”
磁力链下载【下载链接仅对注册会员开放,登陆后可见】
BT9527电影天堂 1、BT9527电影天堂提供的BT文件均来源于互联网抓取,只供网友学习交流、技术提升使用。
2、我们遵守BitTorrent点对点协议原则,任何版权问题请联系原资源发布商,我们不处理任何版权纠纷,谢谢!如有争议请联系邮箱:BT9527#hotmail.com(#换成@)
3、如果您发现某页面或地址有错误,请联系站长邮箱BT9527#hotmail.com(#换成@),我们会尽快处理。您的热心是对BT9527电影天堂最大的支持。
4、本站建议去正规影院观看电影以支持电影行业发展。
最新回复 (0)

你可以在 登录 or 注册 后,对此帖发表评论!

返回
发新帖