白发魔女传[国语音轨/中英字幕].The.Bride.with.White.Hair.1993.BluRay.1080p.x265.10bit.2Audio-MiniHD 5.53GB

版主小s 11天前 57

✔资源类型:暂未分类   ✔电影年份:更 早   ✔电影地区:香港   ✔电影分类:动作

◎译  名 白发魔女传 / 狼女 / The Bride with White Hair
◎片  名 白髮魔女傳
◎年  代 1993
◎产  地 中国香港
◎类  别 动作 / 爱情 / 奇幻 / 冒险 / 武侠 / 古装
◎语  言 粤语
◎上映日期 1993-08-26(中国香港)
◎IMDb链接 https://www.imdb.com/title/tt0106342/
◎豆瓣评分 7.7/10 (77075人评价)
◎豆瓣链接 https://movie.douban.com/subject/1293765/
◎片  长 89分钟
◎导  演 于仁泰 Ronny Yu (id:1301565)
       胡大为 David Wu (id:1301332)
◎编  剧 胡大为 David Wu (id:1301332)
       于仁泰 Ronny Yu (id:1301565)
       邓碧燕 Elsa Tang (id:1321260)
       林纪陶 Jason Lam (id:1289291)
       梁羽生 Yusheng Liang (id:1003376)
◎演  员 张国荣 Leslie Cheung (id:1003494)
       林青霞 Brigitte Lin (id:1044746)
       吴镇宇 Francis Ng (id:1037098)
       吕少玲 Elaine Lui (id:1326293)
       蓝洁瑛 Kit Ying Lam (id:1046343)
       罗乐林 Lok Lam Law (id:1316045)
       鲍方 Fong Pau (id:1044120)
       高雄 Eddy Ko (id:1313798)
       曾健明 Kin-Ming Tsang (id:1376691)
       袁卓凡 Richard Yuen (id:1287087)
       郑敬基 King-Kei Cheng (id:1315302)
       唐宁 Leila Tong (id:1038227)
       李永洪 Tommie Lee Wing-Hung (id:1411665)
       于仁泰 Ronny Yu (id:1301565)
       黄百鸣 Raymond Wong (id:1275277)
       罗伟佳 Wai-Kai Law (id:1435881)
       袁卓凡 Richard Yuen (id:1287087)
       鲍德熹 Peter Pau (id:1294116)
       胡大为 David Wu (id:1301332)
       马磐超 Eddie Ma (id:1290570)
       和田惠美 Emi Wada (id:1033613)
       张新耀 Sin-Yiu Cheung (id:1330729)
       张永雄 Paul Cheung (id:1402485)
       朱日红 Yat-Hung Chu (id:1330740)
       刘静仪 Sylvia Liu (id:1290178)
       杨德毅 Jacky Yeung (id:1164248)

◎简  介
  明末年间,中原与金国边境战火硝烟四起,姬无双(吴镇宇 饰)的魔教大行肆虐。朝廷与武林联合抗敌。武当派首徒卓一航(张国荣 饰)自幼桀骜不驯,但天资过人,极受掌门紫阳真人看重。卓一航幼年奇遇不断,先后结识了当时还只是武官的吴三桂(高雄 饰)与神秘的狼女(林青霞 饰)。成年后的卓一航为人正直,但浪子本性不改,不愿受礼教束缚,仗义行侠却屡屡受指。大师姐(蓝洁瑛 饰)对其倾心,卓一航却毫不动心。再次偶遇狼女,卓一航心生爱意,狼女亦为之倾心。然后正邪不两立,有情人面对诸般艰难险阻,终是黯然收场……

◎获奖情况 (共10项)
  第30届台北金马影展 (1993)
  金马奖 最佳改编剧本
  金马奖 最佳摄影(提名)
   └──鲍德熹 (id:1294116)
  金马奖 最佳美术设计(提名)
   └──马磐超 (id:1290570)
  金马奖 最佳原创歌曲

  第13届香港电影金像奖 (1994)
  最佳摄影
   └──鲍德熹 (id:1294116)
  最佳剪接(提名)
   └──胡大为 (id:1301332)
  最佳美术指导
   └──马磐超 (id:1290570)
  最佳服装造型设计
  最佳原创电影音乐(提名)
   └──袁卓凡 (id:1287087)
  最佳原创电影歌曲(提名)
   └──张国荣 (id:1003494)

  1. ##### MediaInfo ######
  2. General
  3. Unique ID                                : 176619531937463191197068738807727514619 (0x84DFAF3D809BD659B1916E39D935E3FB)
  4. Complete name                            : The.Bride.with.White.Hair.1993.BluRay.1080p.x265.10bit.2Audio-MiniHD.mkv
  5. Format                                   : Matroska
  6. Format version                           : Version 4
  7. File size                                : 5.53 GiB
  8. Duration                                 : 1 h 29 min
  9. Overall bit rate                         : 8 888 kb/s
  10. Encoded date                             : UTC 2017-05-26 01:37:04
  11. Writing application                      : mkvmerge v11.0.0 ('Alive') 64bit
  12. Writing library                          : libebml v1.3.4 + libmatroska v1.4.5
  13. Video
  14. ID                                       : 1
  15. Format                                   : HEVC
  16. Format/Info                              : High Efficiency Video Coding
  17. Codec ID                                 : V_MPEGH/ISO/HEVC
  18. Duration                                 : 1 h 29 min
  19. Bit rate                                 : 8 071 kb/s
  20. Width                                    : 1 920 pixels
  21. Height                                   : 808 pixels
  22. Display aspect ratio                     : 2.40:1
  23. Frame rate mode                          : Constant
  24. Frame rate                               : 24.000 FPS
  25. Bits/(Pixel*Frame)                       : 0.217
  26. Stream size                              : 5.02 GiB (91%)
  27. Default                                  : Yes
  28. Forced                                   : No
  29. Audio #1
  30. ID                                       : 2
  31. Format                                   : AC-3
  32. Format/Info                              : Audio Coding 3
  33. Commercial name                          : Dolby Digital
  34. Codec ID                                 : A_AC3
  35. Duration                                 : 1 h 29 min
  36. Bit rate mode                            : Constant
  37. Bit rate                                 : 320 kb/s
  38. Channel(s)                               : 2 channels
  39. Channel layout                           : L R
  40. Sampling rate                            : 48.0 kHz
  41. Frame rate                               : 31.250 FPS (1536 SPF)
  42. Compression mode                         : Lossy
  43. Stream size                              : 204 MiB (4%)
  44. Language                                 : Chinese
  45. Service kind                             : Complete Main
  46. Default                                  : Yes
  47. Forced                                   : No
  48. Audio #2
  49. ID                                       : 3
  50. Format                                   : AC-3
  51. Format/Info                              : Audio Coding 3
  52. Commercial name                          : Dolby Digital
  53. Codec ID                                 : A_AC3
  54. Duration                                 : 1 h 29 min
  55. Bit rate mode                            : Constant
  56. Bit rate                                 : 320 kb/s
  57. Channel(s)                               : 2 channels
  58. Channel layout                           : L R
  59. Sampling rate                            : 48.0 kHz
  60. Frame rate                               : 31.250 FPS (1536 SPF)
  61. Compression mode                         : Lossy
  62. Stream size                              : 204 MiB (4%)
  63. Language                                 : Chinese
  64. Service kind                             : Complete Main
  65. Default                                  : No
  66. Forced                                   : No
  67. Text #1
  68. ID                                       : 4
  69. Format                                   : PGS
  70. Muxing mode                              : zlib
  71. Codec ID                                 : S_HDMV/PGS
  72. Codec ID/Info                            : Picture based subtitle format used on BDs/HD-DVDs
  73. Language                                 : Chinese
  74. Default                                  : Yes
  75. Forced                                   : No
  76. Text #2
  77. ID                                       : 5
  78. Format                                   : PGS
  79. Muxing mode                              : zlib
  80. Codec ID                                 : S_HDMV/PGS
  81. Codec ID/Info                            : Picture based subtitle format used on BDs/HD-DVDs
  82. Language                                 : Chinese
  83. Default                                  : No
  84. Forced                                   : No
  85. Text #3
  86. ID                                       : 6
  87. Format                                   : PGS
  88. Muxing mode                              : zlib
  89. Codec ID                                 : S_HDMV/PGS
  90. Codec ID/Info                            : Picture based subtitle format used on BDs/HD-DVDs
  91. Language                                 : English
  92. Default                                  : No
  93. Forced                                   : No
  94. Menu
  95. 00:00:00.000                             : en:Chapter 01
  96. 00:05:43.875                             : en:Chapter 02
  97. 00:15:47.041                             : en:Chapter 03
  98. 00:21:15.583                             : en:Chapter 04
  99. 00:29:08.750                             : en:Chapter 05
  100. 00:39:07.791                             : en:Chapter 06
  101. 00:47:08.625                             : en:Chapter 07
  102. 00:51:52.291                             : en:Chapter 08
  103. 00:57:54.791                             : en:Chapter 09
  104. 01:07:20.875                             : en:Chapter 10
  105. 01:17:02.875                             : en:Chapter 11
  106. 01:25:18.791                             : en:Chapter 12





此处一般会放置磁力链或种子下载链接,不过此链接需要注册会员才能看到,点击“立即注册”
磁力链下载【下载链接仅对注册会员开放,登陆后可见】
BT9527电影天堂 1、BT9527电影天堂提供的BT文件均来源于互联网抓取,只供网友学习交流、技术提升使用。
2、我们遵守BitTorrent点对点协议原则,任何版权问题请联系原资源发布商,我们不处理任何版权纠纷,谢谢!如有争议请联系邮箱:BT9527#hotmail.com(#换成@)
3、如果您发现某页面或地址有错误,请联系站长邮箱BT9527#hotmail.com(#换成@),我们会尽快处理。您的热心是对BT9527电影天堂最大的支持。
4、本站建议去正规影院观看电影以支持电影行业发展。
最新回复 (0)

你可以在 登录 or 注册 后,对此帖发表评论!

返回
发新帖