破戒[国语音轨].Broken.Oath.1977.CHINESE.1080p.AMZN.WEBRip.DDP2.0.x264-CBON 6.89GB

版主小s 11天前 163

✔资源类型:WEB-1080P   ✔电影年份:更 早   ✔电影地区:香港   ✔电影分类:动作

RARBG.jpg (52.58 KB, 下载次数: 0)

下载附件

7 天前 上传


Douban.jpg (136.58 KB, 下载次数: 0)

下载附件

7 天前 上传



◎译  名 破戒 / Broken Oath
◎年  代 1977
◎产  地 中国香港
◎类  别 动作 / 古装
◎语  言 粤语
◎上映日期 1977-12-03
◎IMDb链接 https://www.imdb.com/title/tt0076550/
◎豆瓣评分 6.2/10 (333人评价)
◎豆瓣链接 https://movie.douban.com/subject/1302197/
◎片  长 96 分钟
◎导  演 郑昌和 Chang-hwa Jeong (id:1042483)
◎演  员 梁小龙 Siu-Lung Leung (id:1274267)
       陈惠敏 Wai-Man Chan (id:1012699)
       茅瑛 Angela Mao (id:1050373)
       王莱 Lai Wang (id:1108707)
       洪金宝 Sammo Hung Kam-Bo (id:1055887)
       何柏光 Pak-Kwong Ho (id:1350540)
       田淑 Shook Jeon (id:1339779)
       冯敬文 Ging Man Fung (id:1341397)
       张佩山 Pei-Shan Chang (id:1331539)
       袁日初 Yat Chor Yuen (id:1316395)
       朱由高 Yao Ko Chu (id:1360764)
       金琪珠 Chi Chu Chin (id:1313511)
       赵雄 Chiao Hsiung (id:1321595)
       山怪 Kwai Shan (id:1389319)
       元奎 Corey Yuen (id:1289150)
       陈会毅 Billy Chan (id:1280414)
       林正英 Ching-Ying Lam (id:1016823)
       关山 Shan Kwan (id:1103354)
       李允中 Yunzhong Li (id:1121589)
       鲁俊谷 Chin-Ku Lu (id:1122097)
       石天 Dean Shek (id:1146001)
       元彪 Biao Yuen (id:1163752)
       韩英杰 Ying-Chieh Han (id:1274444)
       金天柱 Tien-Chu Chin (id:1417197)
       邹文怀 Raymond Chow (id:1016883)
       陈勋奇 Frankie Chan (id:1280419)
       张耀宗 Peter Cheung (id:1280650)
       周少龙 Shao Lung Chou (id:1344862)

◎简  介
  镇西总兵刘大雄与夫人绮梅在返家途中被昔日四个仆人拦劫. 刘被害而绮梅被辱. 但四个仆人的背后主使是六亲王的随从, 绮梅反因企图谋杀官差被判终身流放到海中孤岛狼牙岛.                                    
                                在狱中绮梅与千手观音结为好友, 并在岛上产下一女. 千手观音不想让幼女卷入尘世, 将之送入尼姑庵, 主持将她取名为洁莲. 但20年过后, 练下一身武艺的洁莲还是因杀气太重犯下杀戒, 被逐出寺门. 洁莲从乾娘千手观音口中终於得知自己身世, 决心报这一血海深仇…
  1. Video
  2. ID                                       : 1
  3. Format                                   : AVC
  4. Format/Info                              : Advanced Video Codec
  5. Format profile                           : High@L4
  6. Format settings                          : CABAC / 4 Ref Frames
  7. Format settings, CABAC                   : Yes
  8. Format settings, Reference frames        : 4 frames
  9. Codec ID                                 : V_MPEG4/ISO/AVC
  10. Duration                                 : 1 h 38 min
  11. Bit rate mode                            : Constant
  12. Bit rate                                 : 10 000 kb/s
  13. Width                                    : 1 920 pixels
  14. Height                                   : 816 pixels
  15. Display aspect ratio                     : 2.35:1
  16. Original display aspect ratio            : 2.35:1
  17. Frame rate mode                          : Constant
  18. Frame rate                               : 23.976 (24000/1001/53354) FPS
  19. Color space                              : YUV
  20. Chroma subsampling                       : 4:2:0
  21. Bit depth                                : 8 bits
  22. Scan type                                : Progressive
  23. Bits/(Pixel*Frame)                       : 0.266
  24. Stream size                              : 6.74 GiB (98%)
  25. Language                                 : Chinese
  26. Default                                  : Yes
  27. Forced                                   : No
  28. Color range                              : Limited
  29. Color primaries                          : BT.709
  30. Transfer characteristics                 : BT.709
  31. Matrix coefficients                      : BT.709

  32. Audio
  33. ID                                       : 2
  34. Format                                   : E-AC-3
  35. Format/Info                              : Enhanced AC-3
  36. Commercial name                          : Dolby Digital Plus
  37. Codec ID                                 : A_EAC3
  38. Duration                                 : 1 h 38 min
  39. Bit rate mode                            : Constant
  40. Bit rate                                 : 224 kb/s
  41. Channel(s)                               : 2 channels
  42. Channel layout                           : L R
  43. Sampling rate                            : 48.0 kHz
  44. Frame rate                               : 31.250 FPS (1536 SPF)
  45. Compression mode                         : Lossy
  46. Stream size                              : 157 MiB (2%)
  47. Language                                 : Chinese
  48. Service kind                             : Complete Main
  49. Default                                  : Yes
  50. Forced                                   : No

  51. Text
  52. ID                                       : 3
  53. Format                                   : UTF-8
  54. Codec ID                                 : S_TEXT/UTF8
  55. Codec ID/Info                            : UTF-8 Plain Text
  56. Duration                                 : 1 h 20 min
  57. Bit rate                                 : 38 b/s
  58. Count of elements                        : 593
  59. Stream size                              : 23.0 KiB (0%)
  60. Language                                 : English
  61. Default                                  : No
  62. Forced                                   : No


1.jpg (12.06 KB, 下载次数: 0)

下载附件

7 天前 上传

2.jpg (38.1 KB, 下载次数: 0)

下载附件

7 天前 上传

3.jpg (30.09 KB, 下载次数: 0)

下载附件

7 天前 上传




此处一般会放置磁力链或种子下载链接,不过此链接需要注册会员才能看到,点击“立即注册”
磁力链下载【下载链接仅对注册会员开放,登陆后可见】
BT9527电影天堂 1、BT9527电影天堂提供的BT文件均来源于互联网抓取,只供网友学习交流、技术提升使用。
2、我们遵守BitTorrent点对点协议原则,任何版权问题请联系原资源发布商,我们不处理任何版权纠纷,谢谢!如有争议请联系邮箱:BT9527#hotmail.com(#换成@)
3、如果您发现某页面或地址有错误,请联系站长邮箱BT9527#hotmail.com(#换成@),我们会尽快处理。您的热心是对BT9527电影天堂最大的支持。
4、本站建议去正规影院观看电影以支持电影行业发展。
最新回复 (0)

你可以在 登录 or 注册 后,对此帖发表评论!

返回
发新帖