第九区[国英多音轨/简繁英特效字幕].District.9.2009.BluRay.2160p.x265.10bit.HDR.2Audio-MiniHD 28.55GB

版主小s 3月前 140

✔资源类型:BD-4K   ✔电影年份:2009   ✔电影地区:欧美   ✔电影分类:剧情

◎译  名 第九区 / D-9异形禁区(港) / 第九禁区(台) / 第9区
◎片  名 District 9
◎年  代 2009
◎产  地 美国 / 新西兰 / 加拿大 / 南非
◎类  别 剧情 / 动作 / 科幻 / 惊悚
◎语  言 英语 / 尼扬贾语 / 南非荷兰语 / 祖鲁语 / 科萨语 / 塞索托语
◎上映日期 2009-11-27(中国大陆) / 2009-08-14(美国)
◎IMDb链接 https://www.imdb.com/title/tt1136608/
◎豆瓣评分 8.3/10 (419441人评价)
◎豆瓣链接 https://movie.douban.com/subject/3006772/
◎片  长 112分钟
◎导  演 尼尔·布洛姆坎普 Neill Blomkamp (id:1049576)
◎编  剧 尼尔·布洛姆坎普 Neill Blomkamp (id:1049576)
       特丽·塔歇尔 Terri Tatchell (id:1311893)
◎演  员 沙尔托·科普雷 Sharlto Copley (id:1036300)
       詹森·库伯 Jason Cope (id:1319331)
       娜塔莉·博尔特 Nathalie Boltt (id:1319332)
       茜尔雯·斯特赖克 Sylvaine Strike (id:1326584)
       约翰·萨莫尔 John Sumner (id:1152796)
       威廉·艾伦·扬 William Allen Young (id:1319333)
       尼克·布雷克 Nick Blake (id:1342796)
       杰德·布罗菲 Jed Brophy (id:1325970)
       路易斯·米纳尔 Louis Minnaar (id:1342712)
       瓦妮莎·海伍德 Vanessa Haywood (id:1337167)
       玛丽安·胡曼 Marian Hooman (id:1375628)
       维多利奥·莱奥纳迪 Vittorio Leonardi (id:1375626)
       曼德拉·加杜卡 Mandla Gaduka (id:1375624)
       约翰·范·肖尔 Johan van Schoor (id:1375627)
       斯特拉·斯廷坎普 Stella Steenkamp (id:1375629)
       戴维·詹姆斯 David James (id:1341922)
       肯尼思·恩科西 Kenneth Nkosi (id:1375625)
       蒂姆·戈登 Tim Gordon (id:1375630)
       莫尔内·埃拉斯姆斯 Morne Erasmus (id:1375631)
       尤金·孔巴尼瓦 Eugene Khumbanyiwa (id:1342713)
       赫棱基维·马德拉拉 Hlengiwe Madlala (id:1375632)
       西雅邦加·拉德贝 Siyabonga Radebe (id:1375633)
       梅尔特·西贝尔哈亨 Melt Sieberhagen (id:1375634)
       安德勒·奥登达尔 Andre Odendaal (id:1375635)
       尼克·伯莱尼 Nick Boraine (id:1348974)
       罗伯特·霍布斯 Robert Hobbs (id:1331344)
       Barry Strydom Barry Strydom (id:1342800)
       西莫·莫加瓦扎 Simo Mogwaza (id:1341002)
       伊丽莎白玛坎达维 Elizabeth Mkandawie (id:1342794)
       格雷格·梅尔维尔-史密斯 Greg Melvill-Smith (id:1342795)
       Morena Busa Sesatsa Morena Busa Sesatsa (id:1342797)
       Themba Nkosi Themba Nkosi (id:1342798)
       Mzwandile Nqoba Mzwandile Nqoba (id:1342799)
       大卫·杜卡斯 David Dukas (id:1086305)
       卡罗琳·康宁安 Carolynne Cunningham (id:1281601)
       菲利帕·鲍恩斯 Philippa Boyens (id:1279114)
       彼得·杰克逊 Peter Jackson (id:1040524)
       克林顿·绍特 Clinton Shorter (id:1033000)
       特伦特·欧派洛克 Trent Opaloch (id:1302480)
       祖利安·格克 Julian Clarke (id:1050939)
       菲利普·艾维 Philip Ivey (id:1033619)
       Emilia Roux Emilia Roux (id:1296223)
       Guy Potgieter Guy Potgieter (id:1308828)
       Mike Berg Mike Berg (id:1278413)
       戴安娜·西利尔斯 Diana Cilliers (id:1467795)
       弗朗西斯·理查德森 Frances Richardson (id:1310427)
       Cristina Patterson Ceret Cristina Patterson Ceret (id:1133266)
       Joe Dunckley Joe Dunckley (id:1282811)
       Sarah Rubano Sarah Rubano (id:1296258)
       Simon Hansen Simon Hansen (id:1037213)
       Jeremy Mesana Jeremy Mesana (id:1312656)
       Simon van de Lagemaat Simon van de Lagemaat (id:1299824)
       James Stewart James Stewart (id:1298433)
       Paul Ryan Paul Ryan (id:1296386)
       Steve Nichols Steve Nichols (id:1293144)
       彼得·迈泽尔斯 Peter Muyzers (id:1292806)
       丹·考夫曼 Dan Kaufman (id:1288219)
       Brett Ineson Brett Ineson (id:1287320)
       Simon Hughes Simon Hughes (id:1287119)
       温斯顿·赫尔加森 Winston Helgason (id:1286388)
       James G. Hebb James G. Hebb (id:1286323)
       罗伯特·哈布罗斯 Robert Habros (id:1285756)
       马特·艾特肯 Matt Aitken (id:1276892)
        Francisco Moncayo Moreno (id:1266208)
       R·克里斯托弗·怀特 R. Christopher White (id:1300813)
       艾琳·莫兰 Eileen Moran (id:1302083)
       亚尼恩·艾略特 Janeen Elliott (id:1302457)
       Vera Zivny Vera Zivny (id:1311635)
       Steve Cronin Steve Cronin (id:1310091)
       哈米什·舒马赫 Hamish Schumacher (id:1308213)
       Rainer Z?ttl Rainer Z?ttl (id:1308208)
       Jean-Luc Azzis Jean-Luc Azzis (id:1308203)
       Patrick Kalyn Patrick Kalyn (id:1307995)
       Brian Harder Brian Harder (id:1307993)
       Marco Revelant Marco Revelant (id:1306989)
       Shervin Shoghian Shervin Shoghian (id:1305826)
       Todd Labonte Todd Labonte (id:1305816)
       Stefanie Boose Stefanie Boose (id:1305155)
       Charlie Bradbury Charlie Bradbury (id:1304152)
       Mark Richardson Mark Richardson (id:1303105)
        Steve Johnston (id:1263126)
        Jeff Higgins (id:1255547)
        Daniel Gaudreau (id:1253211)
       Marco Checa Garcia Marco Checa Garcia (id:1170382)
       Matt Welford Matt Welford (id:1168759)
       Adrian Van Der Park Adrian Van Der Park (id:1158851)
       Mara Bryan Mara Bryan (id:1029720)
       查尔斯·泰特 Charles Tait (id:1149185)
       Alan Rosenfeld Alan Rosenfeld (id:1140488)
       Marc Roth Marc Roth (id:1139035)
       斯蒂芬·佩珀 Stephen Pepper (id:1133485)
       保罗·弗拉纳根 Paul Flanagan (id:1212848)
       Paul Griffin Paul Griffin (id:1098022)
       Chris Derochie Chris Derochie (id:1079811)
       克里斯汀·布拉南 Kristen Branan (id:1078302)
       Donavon Stinson Donavon Stinson (id:1178372)
       丹·阿什顿 Dan Ashton (id:1187304)
        Brendon Morfitt (id:1229338)
        Jacob Curtis Miller (id:1245736)
        Freddy Chavez Olmos (id:1221970)
        Artin Aryaei (id:1221853)
       Tristam Gieni Tristam Gieni (id:1214041)
       Ezekiel Norton Ezekiel Norton (id:1013047)
       Jakob Schmidt Jakob Schmidt (id:1210125)
       Daniel Bryant Daniel Bryant (id:1209285)

◎简  介
  1990年,一艘巨大的飞船出现在地球上空,人们惶恐不安,却又分外好奇。经过一段时间紧张的等待,外星飞船始终没有动静。人类终于小心翼翼靠近它,强行走进舱内,结果发现了不计其数的外星人。他们形容丑陋,宛如虾子,而且健康状况极差,虚弱无力。原来这是一群来自外星的难民,他们最终被地球人接纳,并隔离在南非约翰内斯堡的一片区域内生活,此地名为“第九区”。经过长达20年的繁衍,外星难民的数量扩张至180万之多,且和周边人类的矛盾冲突不断,越来越多的人类呼吁将“大虾”赶出地球。                                    
                                MNU(列国同盟组织)经过磋商,决定将外星难民迁移到更为偏远的区域。MNU外星事务部门的特工威库斯(Sharlto Copley 饰)专门负责搬迁工作。威库斯在动员过程中傲慢随意,与当地居民冲突频频。最终,他为自己的行为付出代价,外星人的神秘流体将其感染,威库斯慢慢变成了外星人的模样……

◎获奖情况 (共12项)
  第82届奥斯卡金像奖 (2010)
  最佳影片(提名)
  最佳改编剧本(提名)
  最佳剪辑(提名)
   └──祖利安·格克 (id:1050939)
  最佳视觉效果(提名)

  第67届金球奖 (2010)
  电影类 最佳编剧(提名)

  第19届MTV电影奖 (2010)
  MTV电影奖 最佳惊恐戏表演(提名)
   └──沙尔托·科普雷 (id:1036300)

  第22届芝加哥影评人协会奖 (2009)
  最具潜力演员(提名)
   └──沙尔托·科普雷 (id:1036300)
  最具潜力导演
   └──尼尔·布洛姆坎普 (id:1049576)

  第43届堪萨斯影评人协会奖 (2010)
  最佳科幻/恐怖片

  第9届凤凰城影评人协会奖 (2009)
  最佳新人导演
   └──尼尔·布洛姆坎普 (id:1049576)

  第12届美国青少年选择奖 (2010)
  最佳科幻电影(提名)
  最佳科幻电影男演员(提名)
   └──沙尔托·科普雷 (id:1036300)

  1. ##### MediaInfo ######
  2. General
  3. Unique ID                                : 189656171837150124384734895050343361263 (0x8EAE733656DC1DAF973D16C22068AAEF)
  4. Complete name                            : District.9.2009.BluRay.2160p.x265.10bit.HDR.2Audio-MiniHD.mkv
  5. Format                                   : Matroska
  6. Format version                           : Version 4
  7. File size                                : 28.6 GiB
  8. Duration                                 : 1 h 52 min
  9. Overall bit rate mode                    : Variable
  10. Overall bit rate                         : 36.4 Mb/s
  11. Encoded date                             : UTC 2020-10-13 04:15:30
  12. Writing application                      : mkvmerge v44.0.0 ('Domino') 64-bit
  13. Writing library                          : libebml v1.3.10 + libmatroska v1.5.2
  14. Video
  15. ID                                       : 1
  16. Format                                   : HEVC
  17. Format/Info                              : High Efficiency Video Coding
  18. Format profile                           : Main 10@L5.1@High
  19. HDR format                               : SMPTE ST 2086, HDR10 compatible
  20. Codec ID                                 : V_MPEGH/ISO/HEVC
  21. Duration                                 : 1 h 52 min
  22. Bit rate                                 : 28.9 Mb/s
  23. Width                                    : 3 840 pixels
  24. Height                                   : 2 076 pixels
  25. Display aspect ratio                     : 1.85:1
  26. Frame rate mode                          : Constant
  27. Frame rate                               : 23.976 (24000/1001/53354) FPS
  28. Color space                              : YUV
  29. Chroma subsampling                       : 4:2:0 (Type 2)
  30. Bit depth                                : 10 bits
  31. Bits/(Pixel*Frame)                       : 0.151
  32. Stream size                              : 22.7 GiB (79%)
  33. Writing library                          : x265 3.4+12-g9103319fc:[Windows][MSVC 1900][64 bit] 10bit
  34. Encoding settings                        : cpuid=533541176575 / frame-threads=6 / numa-pools=36 / wpp / no-pmode / no-pme / no-psnr / no-ssim / log-level=2 / input-csp=1 / input-res=3840x2076 / interlace=0 / total-frames=161496 / level-idc=51 / high-tier=1 / uhd-bd=0 / ref=4 / no-allow-non-conformance / repeat-headers / annexb / aud / hrd / info / hash=0 / no-temporal-layers / no-open-gop / min-keyint=23 / keyint=250 / gop-lookahead=0 / bframes=4 / b-adapt=2 / b-pyramid / bframe-bias=0 / rc-lookahead=25 / lookahead-slices=4 / NTMzNTQ=uuDQuD2mJt9fsCf / scenecut=40 / hist-scenecut=0 / radl=0 / no-splice / no-intra-refresh / ctu=64 / min-cu-size=8 / rect / no-amp / max-tu-size=32 / tu-inter-depth=1 / tu-intra-depth=1 / limit-tu=0 / rdoq-level=2 / dynamic-rd=0.00 / no-ssim-rd / signhide / no-tskip / nr-intra=0 / nr-inter=0 / no-constrained-intra / no-strong-intra-smoothing / max-merge=3 / limit-refs=3 / limit-modes / me=3 / subme=3 / merange=57 / temporal-mvp / no-frame-dup / no-hme / weightp / no-weightb / no-analyze-src-pics / deblock=-3:-3 / no-sao / no-sao-non-deblock / rd=4 / selective-sao=0 / no-early-skip / rskip / no-fast-intra / no-tskip-fast / no-cu-lossless / no-b-intra / no-splitrd-skip / rdpenalty=0 / psy-rd=2.00 / psy-rdoq=1.00 / no-rd-refine / no-lossless / cbqpoffs=0 / crqpoffs=0 / rc=crf / crf=14.4 / qcomp=0.60 / qpstep=4 / stats-write=0 / stats-read=0 / vbv-maxrate=160000 / vbv-bufsize=160000 / vbv-init=0.9 / crf-max=0.0 / crf-min=0.0 / ipratio=1.40 / pbratio=1.30 / aq-mode=2 / aq-strength=0.80 / cutree / zone-count=0 / no-strict-cbr / qg-size=32 / no-rc-grain / qpmax=69 / qpmin=0 / no-const-vbv / sar=1 / overscan=0 / videoformat=5 / range=0 / colorprim=9 / transfer=16 / colormatrix=9 / chromaloc=1 / chromaloc-top=2 / chromaloc-bottom=2 / display-window=0 / master-display=G(13250,34500)B(7500,3000)R(34000,16000)WP(15635,16450)L(40000000,50) / cll=2376,517 / min-luma=0 / max-luma=1023 / log2-max-poc-lsb=8 / vui-timing-info / vui-hrd-info / slices=1 / no-opt-qp-pps / no-opt-ref-list-length-pps / no-multi-pass-opt-rps / scenecut-bias=0.05 / hist-threshold=0.01 / no-opt-cu-delta-qp / no-aq-motion / hdr10 / hdr10-opt / no-dhdr10-opt / no-idr-recovery-sei / analysis-reuse-level=0 / analysis-save-reuse-level=0 / analysis-load-reuse-level=0 / scale-factor=0 / refine-intra=0 / refine-inter=0 / refine-mv=1 / refine-ctu-distortion=0 / no-limit-sao / ctu-info=0 / no-lowpass-dct / refine-analysis-type=0 / copy-pic=1 / max-ausize-factor=1.0 / no-dynamic-refine / no-single-sei / no-hevc-aq / no-svt / no-field / qp-adaptation-range=1.00 / no-scenecut-aware-qpconformance-window-offsets / right=0 / bottom=0 / NTMzNTQ= / decoder-max-rate=0
  35. Default                                  : Yes
  36. Forced                                   : No
  37. Color range                              : Limited
  38. Color primaries                          : BT.2020
  39. Transfer characteristics                 : PQ
  40. Matrix coefficients                      : BT.2020 non-constant
  41. Mastering display color primaries        : Display P3
  42. Mastering display luminance              : min: 0.0050 cd/m2, max: 4000 cd/m2
  43. Maximum Content Light Level              : 2376 cd/m2
  44. Maximum Frame-Average Light Level        : 517 cd/m2
  45. Audio #1
  46. ID                                       : 2
  47. Format                                   : MLP FBA 16-ch
  48. Format/Info                              : Meridian Lossless Packing FBA with 16-channel presentation
  49. Commercial name                          : Dolby TrueHD with Dolby Atmos
  50. Codec ID                                 : A_TRUEHD
  51. Duration                                 : 1 h 52 min
  52. Bit rate mode                            : Variable
  53. Bit rate                                 : 3 442 kb/s
  54. Maximum bit rate                         : 5 568 kb/s
  55. Channel(s)                               : 8 channels
  56. Channel layout                           : L R C LFE Ls Rs Lb Rb
  57. Sampling rate                            : 48.0 kHz
  58. Frame rate                               : 1 200.000 FPS (40 SPF)
  59. Compression mode                         : Lossless
  60. Stream size                              : 2.70 GiB (9%)
  61. Title                                    : 英语
  62. Language                                 : English
  63. Default                                  : Yes
  64. Forced                                   : No
  65. Number of dynamic objects                : 11
  66. Bed channel count                        : 1 channel
  67. Bed channel configuration                : LFE
  68. Audio #2
  69. ID                                       : 3
  70. Format                                   : DTS XLL
  71. Format/Info                              : Digital Theater Systems
  72. Commercial name                          : DTS-HD Master Audio
  73. Codec ID                                 : A_DTS
  74. Duration                                 : 1 h 52 min
  75. Bit rate mode                            : Variable
  76. Bit rate                                 : 3 844 kb/s
  77. Channel(s)                               : 6 channels
  78. Channel layout                           : C L R Ls Rs LFE
  79. Sampling rate                            : 48.0 kHz
  80. Frame rate                               : 93.750 FPS (512 SPF)
  81. Bit depth                                : 24 bits
  82. Compression mode                         : Lossless
  83. Stream size                              : 3.01 GiB (11%)
  84. Title                                    : 上译国语
  85. Language                                 : Chinese
  86. Default                                  : No
  87. Forced                                   : No
  88. Text #1
  89. ID                                       : 4
  90. Format                                   : PGS
  91. Muxing mode                              : zlib
  92. Codec ID                                 : S_HDMV/PGS
  93. Codec ID/Info                            : Picture based subtitle format used on BDs/HD-DVDs
  94. Duration                                 : 1 h 48 min
  95. Bit rate                                 : 43.6 kb/s
  96. Count of elements                        : 3136
  97. Stream size                              : 33.9 MiB (0%)
  98. Title                                    : 英文SDH
  99. Language                                 : English
  100. Default                                  : Yes
  101. Forced                                   : No
  102. Text #2
  103. ID                                       : 5
  104. Format                                   : PGS
  105. Muxing mode                              : zlib
  106. Codec ID                                 : S_HDMV/PGS
  107. Codec ID/Info                            : Picture based subtitle format used on BDs/HD-DVDs
  108. Duration                                 : 1 h 45 min
  109. Bit rate                                 : 71.4 kb/s
  110. Count of elements                        : 4237
  111. Stream size                              : 54.1 MiB (0%)
  112. Title                                    : 国配特效
  113. Language                                 : Chinese
  114. Default                                  : No
  115. Forced                                   : No
  116. Text #3
  117. ID                                       : 6
  118. Format                                   : PGS
  119. Muxing mode                              : zlib
  120. Codec ID                                 : S_HDMV/PGS
  121. Codec ID/Info                            : Picture based subtitle format used on BDs/HD-DVDs
  122. Duration                                 : 1 h 45 min
  123. Bit rate                                 : 99.6 kb/s
  124. Count of elements                        : 2787
  125. Stream size                              : 75.5 MiB (0%)
  126. Title                                    : 简英特效
  127. Language                                 : Chinese
  128. Default                                  : No
  129. Forced                                   : No
  130. Text #4
  131. ID                                       : 7
  132. Format                                   : PGS
  133. Muxing mode                              : zlib
  134. Codec ID                                 : S_HDMV/PGS
  135. Codec ID/Info                            : Picture based subtitle format used on BDs/HD-DVDs
  136. Duration                                 : 1 h 43 min
  137. Bit rate                                 : 36.7 kb/s
  138. Count of elements                        : 2958
  139. Stream size                              : 27.2 MiB (0%)
  140. Title                                    : 原盘简中
  141. Language                                 : Chinese
  142. Default                                  : No
  143. Forced                                   : No
  144. Text #5
  145. ID                                       : 8
  146. Format                                   : PGS
  147. Muxing mode                              : zlib
  148. Codec ID                                 : S_HDMV/PGS
  149. Codec ID/Info                            : Picture based subtitle format used on BDs/HD-DVDs
  150. Duration                                 : 1 h 43 min
  151. Bit rate                                 : 36.3 kb/s
  152. Count of elements                        : 2958
  153. Stream size                              : 27.0 MiB (0%)
  154. Title                                    : 原盘繁中
  155. Language                                 : Chinese
  156. Default                                  : No
  157. Forced                                   : No
  158. Menu
  159. 00:00:00.000                             : en:Chapter 01
  160. 00:06:22.340                             : en:Chapter 02
  161. 00:13:25.346                             : en:Chapter 03
  162. 00:20:33.357                             : en:Chapter 04
  163. 00:27:08.752                             : en:Chapter 05
  164. 00:34:13.718                             : en:Chapter 06
  165. 00:41:57.932                             : en:Chapter 07
  166. 00:47:01.944                             : en:Chapter 08
  167. 00:54:07.953                             : en:Chapter 09
  168. 01:00:00.597                             : en:Chapter 10
  169. 01:08:25.977                             : en:Chapter 11
  170. 01:13:37.872                             : en:Chapter 12
  171. 01:21:02.191                             : en:Chapter 13
  172. 01:26:40.362                             : en:Chapter 14
  173. 01:33:41.366                             : en:Chapter 15
  174. 01:38:44.502                             : en:Chapter 16
  175. 01:46:11.782                             : en:Chapter 17





此处一般会放置磁力链或种子下载链接,不过此链接需要注册会员才能看到,点击“立即注册”
磁力链下载【下载链接仅对注册会员开放,登陆后可见】
BT9527电影天堂 1、BT9527电影天堂提供的BT文件均来源于互联网抓取,只供网友学习交流、技术提升使用。
2、我们遵守BitTorrent点对点协议原则,任何版权问题请联系原资源发布商,我们不处理任何版权纠纷,谢谢!如有争议请联系邮箱:BT9527#hotmail.com(#换成@)
3、如果您发现某页面或地址有错误,请联系站长邮箱BT9527#hotmail.com(#换成@),我们会尽快处理。您的热心是对BT9527电影天堂最大的支持。
4、本站建议去正规影院观看电影以支持电影行业发展。
最新回复 (0)

你可以在 登录 or 注册 后,对此帖发表评论!

返回
发新帖