菠萝快车[简英字幕].Pineapple.Express.2008.BluRay.2160p.x265.10bit.HDR-MiniHD 19.83GB

版主小s 15天前 28

✔资源类型:BD-4K   ✔电影年份:2008   ✔电影地区:欧美   ✔电影分类:喜剧

◎译  名 菠萝快车 / 菠萝快递 / 菠萝特快
◎片  名 Pineapple Express
◎年  代 2008
◎产  地 美国
◎类  别 喜剧 / 动作 / 惊悚 / 犯罪 / 冒险
◎语  言 英语 / 粤语 / 韩语
◎上映日期 2008-08-06(美国)
◎IMDb链接 https://www.imdb.com/title/tt0910936/
◎豆瓣评分 7.0/10 (16817人评价)
◎豆瓣链接 https://movie.douban.com/subject/2074035/
◎片  长 111 分钟
◎导  演 大卫·戈登·格林 David Gordon Green (id:1000217)
◎编  剧 塞斯·罗根 Seth Rogen (id:1002668)
       埃文·戈德堡 Evan Goldberg (id:1308336)
       贾德·阿帕图 Judd Apatow (id:1036351)
◎演  员 塞斯·罗根 Seth Rogen (id:1002668)
       詹姆斯·弗兰科 James Franco (id:1019001)
       丹尼·麦克布莱德 Danny McBride (id:1013797)
       凯文·考利甘 Kevin Corrigan (id:1002746)
       克雷格·罗宾森 Craig Robinson (id:1142826)
       盖瑞·科尔 Gary Cole (id:1049563)
       罗茜·佩雷兹 Rosie Perez (id:1049680)
       小艾德·博格里 Ed Begley Jr. (id:1049729)
       诺拉·邓恩 Nora Dunn (id:1055038)
       艾梅柏·希尔德 Amber Heard (id:1044702)
       乔·洛·特鲁格里奥 Joe Lo Truglio (id:1125111)
       亚瑟·纳平泰克 Arthur Napiontek (id:1023208)
       克利奥·金 Cleo King (id:1105936)
       比尔·哈德尔 Bill Hader (id:1017902)
       詹姆斯·瑞马尔 James Remar (id:1013812)
       杰克·科勒尔 Jack Kehler (id:1288307)
       史蒂夫·班诺斯 Steve Bannos (id:1022956)
       埃迪·鲁斯 Eddie Rouse (id:1296200)
       郑肯 Ken Jeong (id:1275017)
       卓丹·李 Jourdan Lee (id:1329293)
       约翰·R·邓肯 John R. Duncan (id:1432768)
        Mae LaBorde (id:1242031)
        Jordan Pontell (id:1239573)
        David McDivitt (id:1225412)
       珍内塔·阿尔内特 Jeannetta Arnette (id:1060651)
       Adam Crosby Adam Crosby (id:1078126)
       鲍比·李 Bobby Lee (id:1050055)
       Ricky D?minguez Ricky D?minguez (id:1085063)
       Jill Sayre Jill Sayre (id:1140611)
       康妮·索耶 Connie Sawyer (id:1142655)
       John Robert Tramutola John Robert Tramutola (id:1206146)
       布莱恩·斯坎内尔 Brian Scannell (id:1206900)
       肯达尔·卡莉·布朗 Kendall Carly Browne (id:1455440)
       埃文·戈德堡 Evan Goldberg (id:1308336)
       塞斯·罗根 Seth Rogen (id:1002668)
       贾德·阿帕图 Judd Apatow (id:1036351)
       格里莫·瑞维尔 Graeme Revell (id:1028103)
       Tim Orr Tim Orr (id:1293654)
       克雷格·阿尔伯特 Craig Alpert (id:1408351)
       比利·霍普金斯 Billy Hopkins (id:1054463)
       Marc Dabe Marc Dabe (id:1281707)
       Erik Porn Erik Porn (id:1199941)
       罗伯特·霍尔 Robert Hall (id:1037047)
       金伯利·格雷尼 Kimberly Greene (id:1285390)
       Lisa C. Satriano Lisa C. Satriano (id:1276451)
       比尔·博普 Bill Purple (id:1301850)
       尼克·萨特里亚诺 Nick Satriano (id:1001542)
       加里·海姆斯 Gary Hymes (id:1287237)
       布莱恩·哈纳伯 Brian Hanable (id:1090997)
       拉乌尔·博洛尼尼 Raoul Bolognini (id:1174697)
       克里斯汀·布拉南 Kristen Branan (id:1078302)
       罗科·帕西尼诺 Rocco Passionino (id:1294053)

◎简  介
  戴尔(塞斯?罗根 Seth Rogen 饰)有一份令自己和别人都生厌的工作——传票递送员,高中生女友安吉的帅气男同学们又时时令戴尔如坐针毡,于是抽大麻成了他最好的寄托甚至是信仰。戴尔定期在小混混索尔(詹姆斯?弗兰科 James Franco 饰)的家中购买大麻,索尔视其为朋友,推销给他最好的大麻“菠萝快车”,可戴尔只拿对方当做比自己更失败的落寞者。当晚戴尔偶然撞见当地大毒贩瑞德和一名女警联手杀人,慌不择路逃跑的戴尔将菠萝快车这种罕见大麻遗落在现场,担心被瑞德杀人灭口的戴尔和索尔只得选择逃亡,但他们谨慎又笨拙的隐匿方式只是将更多人卷入这场风波,而逃避性格的两人,在这次事件中渐渐学会正视自己的弱点……

◎获奖情况 (共5项)
  第66届金球奖 (2009)
  电影类 音乐/喜剧片最佳男主角(提名)
   └──詹姆斯·弗兰科 (id:1019001)

  第18届MTV电影奖 (2009)
  MTV电影奖 最佳喜剧表演(提名)
   └──詹姆斯·弗兰科 (id:1019001)
  MTV电影奖 最佳打斗(提名)

  第11届美国青少年选择奖 (2009)
  最佳喜剧片男演员(提名)
   └──塞斯·罗根 (id:1002668)
  Choice Movie: Bromantic Comedy(提名)

  1. ##### MediaInfo ######
  2. General
  3. Unique ID                                : 253651821024929820514298176181517378268 (0xBED3905250A0649B8AC22DB3B41B62DC)
  4. Complete name                            : Pineapple.Express.2008.BluRay.2160p.x265.10bit.HDR-MiniHD.mkv
  5. Format                                   : Matroska
  6. Format version                           : Version 4
  7. File size                                : 19.8 GiB
  8. Duration                                 : 1 h 52 min
  9. Overall bit rate mode                    : Variable
  10. Overall bit rate                         : 25.3 Mb/s
  11. Encoded date                             : UTC 2018-07-26 08:37:53
  12. Writing application                      : mkvmerge v17.0.0 ('Be Ur Friend') 64-bit
  13. Writing library                          : libebml v1.3.5 + libmatroska v1.4.8
  14. Cover                                    : Yes
  15. Attachments                              : cover.jpg
  16. Video
  17. ID                                       : 1
  18. Format                                   : HEVC
  19. Format/Info                              : High Efficiency Video Coding
  20. Format profile                           : Main 10@L5.1@High
  21. Codec ID                                 : V_MPEGH/ISO/HEVC
  22. Duration                                 : 1 h 52 min
  23. Bit rate                                 : 20.8 Mb/s
  24. Width                                    : 3 840 pixels
  25. Height                                   : 1 608 pixels
  26. Display aspect ratio                     : 2.40:1
  27. Frame rate mode                          : Constant
  28. Frame rate                               : 23.976 (24000/1001/53354) FPS
  29. Color space                              : YUV
  30. Chroma subsampling                       : 4:2:0
  31. Bit depth                                : 10 bits
  32. Bits/(Pixel*Frame)                       : 0.140
  33. Stream size                              : 16.3 GiB (82%)
  34. Default                                  : Yes
  35. Forced                                   : No
  36. Color range                              : Limited
  37. Color primaries                          : BT.2020
  38. Transfer characteristics                 : PQ
  39. Matrix coefficients                      : BT.2020 non-constant
  40. Audio
  41. ID                                       : 2
  42. Format                                   : MLP FBA 16-ch
  43. Format/Info                              : Meridian Lossless Packing FBA with 16-channel presentation
  44. Commercial name                          : Dolby TrueHD with Dolby Atmos
  45. Codec ID                                 : A_TRUEHD
  46. Duration                                 : 1 h 52 min
  47. Bit rate mode                            : Variable
  48. Bit rate                                 : 4 482 kb/s
  49. Maximum bit rate                         : 7 863 kb/s
  50. Channel(s)                               : 8 channels
  51. Channel layout                           : L R C LFE Ls Rs Lb Rb
  52. Sampling rate                            : 48.0 kHz
  53. Frame rate                               : 1 200.000 FPS (40 SPF)
  54. Compression mode                         : Lossless
  55. Stream size                              : 3.51 GiB (18%)
  56. Language                                 : English
  57. Default                                  : Yes
  58. Forced                                   : No
  59. Number of dynamic objects                : 11
  60. Bed channel count                        : 1 channel
  61. Bed channel configuration                : LFE
  62. Text #1
  63. ID                                       : 3
  64. Format                                   : PGS
  65. Muxing mode                              : zlib
  66. Codec ID                                 : S_HDMV/PGS
  67. Codec ID/Info                            : Picture based subtitle format used on BDs/HD-DVDs
  68. Duration                                 : 1 h 46 min
  69. Bit rate                                 : 51.3 kb/s
  70. Count of elements                        : 3894
  71. Stream size                              : 39.1 MiB (0%)
  72. Language                                 : English
  73. Default                                  : No
  74. Forced                                   : No
  75. Text #2
  76. ID                                       : 4
  77. Format                                   : ASS
  78. Codec ID                                 : S_TEXT/ASS
  79. Codec ID/Info                            : Advanced Sub Station Alpha
  80. Duration                                 : 1 h 47 min
  81. Bit rate                                 : 164 b/s
  82. Count of elements                        : 1969
  83. Compression mode                         : Lossless
  84. Stream size                              : 129 KiB (0%)
  85. Title                                    : 简体中文
  86. Language                                 : Chinese
  87. Default                                  : Yes
  88. Forced                                   : No



此处一般会放置磁力链或种子下载链接,不过此链接需要注册会员才能看到,点击“立即注册”
磁力链下载【下载链接仅对注册会员开放,登陆后可见】
BT9527电影天堂 1、BT9527电影天堂提供的BT文件均来源于互联网抓取,只供网友学习交流、技术提升使用。
2、我们遵守BitTorrent点对点协议原则,任何版权问题请联系原资源发布商,我们不处理任何版权纠纷,谢谢!如有争议请联系邮箱:BT9527#hotmail.com(#换成@)
3、如果您发现某页面或地址有错误,请联系站长邮箱BT9527#hotmail.com(#换成@),我们会尽快处理。您的热心是对BT9527电影天堂最大的支持。
4、本站建议去正规影院观看电影以支持电影行业发展。
最新回复 (0)

你可以在 登录 or 注册 后,对此帖发表评论!

返回
发新帖