第五波[简繁英字幕].The.5th.Wave.2016.BluRay.2160p.x265.10bit.HDR.2Audio-MiniHD 15.61GB

版主小s 15天前 28

✔资源类型:BD-4K   ✔电影年份:2016   ✔电影地区:欧美   ✔电影分类:动作

◎译  名 第五波 / 第五毁灭(台) / 第五天劫(港) / The Fifth Wave
◎片  名 The 5th Wave
◎年  代 2016
◎产  地 美国
◎类  别 动作 / 科幻 / 惊悚 / 冒险
◎语  言 英语
◎上映日期 2016-01-14(澳大利亚) / 2016-01-22(美国)
◎IMDb链接 https://www.imdb.com/title/tt2304933/
◎豆瓣评分 4.9/10 (15188人评价)
◎豆瓣链接 https://movie.douban.com/subject/25866686/
◎片  长 112分钟
◎导  演 J·布莱克森 J Blakeson (id:1275941)
◎编  剧 苏珊娜·格兰特 Susannah Grant (id:1014314)
       阿齐瓦·高斯曼 Akiva Goldsman (id:1009507)
       杰夫·皮克纳 Jeff Pinkner (id:1339645)
       瑞克·杨西 Rick Yancey (id:1354271)
◎演  员 科洛·莫瑞兹 Chlo? Grace Moretz (id:1018981)
       尼克·罗宾森 Nick Robinson (id:1322130)
       朗·里维斯顿 Ron Livingston (id:1019023)
       玛姬·丝弗 Maggie Siff (id:1017983)
       亚历克斯·罗伊 Alex Roe (id:1354219)
       玛丽亚·贝罗 Maria Bello (id:1002674)
       麦卡·梦露 Maika Monroe (id:1334593)
       列维·施瑞博尔 Liev Schreiber (id:1027151)
       扎克瑞·亚瑟 Zackary Arthur (id:1354272)
       托尼·雷沃罗利 Tony Revolori (id:1204197)
       特丽莎·贝特曼 Talitha Bateman (id:1354273)
       纳吉·杰特 Nadji Jeter (id:1335915)
       琳赛·伊丽莎白 Lindsey Elizabeth (id:1341111)
       马克·约翰·杰弗瑞 Marc John Jefferies (id:1108991)
       查明·李 Charmin Lee (id:1414285)
       加芙列拉·洛佩兹 Gabriela Lopez (id:1340738)
       迈克尔·比斯利 Michael Beasley (id:1335294)
       玛丽·特劳特曼 Mary Troutman (id:1467529)
       托比·马奎尔 Tobey Maguire (id:1047997)
       亨利·杰克曼 Henry Jackman (id:1315635)
       雪伦·戴维斯 Sharen Davis (id:1033006)

◎简  介
  某日,人类赖以生存的家园地球遭到了外星人的猛烈袭击,现代设施和发达科技均遭受到了毁灭性的打击,人类文明仿佛一下子退回了石器时代。凯西(科洛·格蕾斯·莫瑞兹 Chloe Grace Moretz 饰)和弟弟山姆(扎克瑞·亚瑟 Zackary Arthur 饰)在灾难之中失去了母亲,姐弟两人顾不上悲伤,跟随着父亲奥利弗(朗·里维斯顿 Ron Livingston 饰)来到难民营避难。                                    
                                沃斯上校(列维·施瑞博尔 Liev Schreiber 饰)带领着军队来到了难民营,他们带走了孩子们,并且声称之后会回来接遗留下来的成年人,凯西和山姆依依不舍的离开了父亲。山姆心爱的泰迪熊落在了难民营,凯西返回寻找,哪知道外星人拥有了能够寄宿在人类体内的能力,导致难民营中发生了动乱。混乱之中,凯西和山姆失散了,为了寻找弟弟,凯西毅然踏上了充满了危险的旅途。
  1. ##### MediaInfo ######
  2. General
  3. Unique ID                                : 217623054459115747513037993173648389723 (0xA3B8ACFBCD2043CAC25FB63CEA77B65B)
  4. Complete name                            : The.5th.Wave.2016.BluRay.2160p.x265.10bit.HDR.2Audio-MiniHD.mkv
  5. Format                                   : Matroska
  6. Format version                           : Version 4
  7. File size                                : 15.6 GiB
  8. Duration                                 : 1 h 52 min
  9. Overall bit rate mode                    : Variable
  10. Overall bit rate                         : 19.9 Mb/s
  11. Movie name                               : The 5th Wave (2016)
  12. Encoded date                             : UTC 2018-05-17 03:31:23
  13. Writing application                      : mkvmerge v20.0.0 ('I Am The Sun') 32-bit
  14. Writing library                          : libebml v1.3.5 + libmatroska v1.4.8
  15. Video
  16. ID                                       : 1
  17. Format                                   : HEVC
  18. Format/Info                              : High Efficiency Video Coding
  19. Format profile                           : Main 10@L5.1@High
  20. HDR format                               : SMPTE ST 2086, HDR10 compatible
  21. Codec ID                                 : V_MPEGH/ISO/HEVC
  22. Duration                                 : 1 h 52 min
  23. Bit rate                                 : 14.9 Mb/s
  24. Width                                    : 3 840 pixels
  25. Height                                   : 1 606 pixels
  26. Display aspect ratio                     : 2.40:1
  27. Frame rate mode                          : Constant
  28. Frame rate                               : 23.976 (24000/1001/53354) FPS
  29. Color space                              : YUV
  30. Chroma subsampling                       : 4:2:0 (Type 2)
  31. Bit depth                                : 10 bits
  32. Bits/(Pixel*Frame)                       : 0.101
  33. Stream size                              : 11.7 GiB (75%)
  34. Writing library                          : x265 2.7+1-2aa737a99f51:[Windows][GCC 7.3.0][64 bit] 10bit
  35. Encoding settings                        : cpuid=533541173503 / frame-threads=8 / numa-pools=32,32 / wpp / no-pmode / no-pme / no-psnr / no-ssim / log-level=2 / input-csp=1 / input-res=3840x1606 / interlace=0 / total-frames=0 / level-idc=51 / high-tier=1 / uhd-bd=0 / ref=5 / no-allow-non-conformance / repeat-headers / annexb / aud / hrd / info / hash=0 / no-temporal-layers / no-open-gop / min-keyint=1 / keyint=360 / gop-lookahead=0 / bframes=8 / b-adapt=2 / b-pyramid / bframe-bias=0 / rc-lookahead=48 / lookahead-slices=4 / NTMzNTQ=uuDQuD2mJt9fsCf / scenecut=40 / radl=0 / no-intra-refresh / ctu=32 / min-cu-size=8 / no-rect / no-amp / max-tu-size=32 / tu-inter-depth=2 / tu-intra-depth=2 / limit-tu=4 / rdoq-level=1 / dynamic-rd=0.00 / no-ssim-rd / signhide / no-tskip / nr-intra=0 / nr-inter=0 / no-constrained-intra / no-strong-intra-smoothing / max-merge=3 / limit-refs=2 / limit-modes / me=3 / subme=5 / merange=25 / temporal-mvp / weightp / weightb / no-analyze-src-pics / deblock=-1:-1 / no-sao / no-sao-non-deblock / rd=4 / no-early-skip / no-rskip / no-fast-intra / no-tskip-fast / no-cu-lossless / b-intra / no-splitrd-skip / rdpenalty=1 / psy-rd=2.00 / psy-rdoq=5.00 / no-rd-refine / no-lossless / cbqpoffs=-3 / crqpoffs=-3 / rc=crf / crf=17.0 / qcomp=0.70 / qpstep=4 / stats-write=0 / stats-read=0 / vbv-maxrate=120000 / vbv-bufsize=120000 / vbv-init=0.9 / crf-max=0.0 / crf-min=0.0 / ipratio=1.40 / pbratio=1.30 / aq-mode=3 / aq-strength=0.80 / cutree / zone-count=0 / no-strict-cbr / qg-size=32 / no-rc-grain / qpmax=69 / qpmin=0 / no-const-vbv / sar=1 / overscan=0 / videoformat=5 / range=0 / colorprim=9 / transfer=16 / colormatrix=9 / chromaloc=1 / chromaloc-top=2 / chromaloc-bottom=2 / display-window=0 / master-display=G(13250,34500)B(7500,3000)R(34000,16000)WP(15635,16450)L(40000000,50) / max-cll=1555,199 / min-luma=0 / max-luma=1023 / log2-max-poc-lsb=8 / vui-timing-info / vui-hrd-info / slices=1 / no-opt-qp-pps / no-opt-ref-list-length-pps / no-multi-pass-opt-rps / scenecut-bias=0.05 / no-opt-cu-delta-qp / no-aq-motion / hdr / hdr-opt / no-dhdr10-opt / analysis-reuse-level=5 / scale-factor=0 / refine-intra=0 / refine-inter=0 / refine-mv=0 / no-limit-sao / ctu-info=0 / no-lowpass-dct / refine-mv-type=0 / copy-pic=1
  36. Default                                  : Yes
  37. Forced                                   : No
  38. Color range                              : Limited
  39. Color primaries                          : BT.2020
  40. Transfer characteristics                 : PQ
  41. Matrix coefficients                      : BT.2020 non-constant
  42. Mastering display color primaries        : Display P3
  43. Mastering display luminance              : min: 0.0050 cd/m2, max: 4000 cd/m2
  44. Maximum Content Light Level              : 1555 cd/m2
  45. Maximum Frame-Average Light Level        : 199 cd/m2
  46. Audio #1
  47. ID                                       : 2
  48. Format                                   : MLP FBA 16-ch
  49. Format/Info                              : Meridian Lossless Packing FBA with 16-channel presentation
  50. Commercial name                          : Dolby TrueHD with Dolby Atmos
  51. Codec ID                                 : A_TRUEHD
  52. Duration                                 : 1 h 52 min
  53. Bit rate mode                            : Variable
  54. Bit rate                                 : 4 217 kb/s
  55. Maximum bit rate                         : 8 493 kb/s
  56. Channel(s)                               : 8 channels
  57. Channel layout                           : L R C LFE Ls Rs Lb Rb
  58. Sampling rate                            : 48.0 kHz
  59. Frame rate                               : 1 200.000 FPS (40 SPF)
  60. Compression mode                         : Lossless
  61. Stream size                              : 3.31 GiB (21%)
  62. Title                                    : 英语全景声
  63. Language                                 : English
  64. Default                                  : Yes
  65. Forced                                   : No
  66. Number of dynamic objects                : 11
  67. Bed channel count                        : 1 channel
  68. Bed channel configuration                : LFE
  69. Audio #2
  70. ID                                       : 3
  71. Format                                   : AC-3
  72. Format/Info                              : Audio Coding 3
  73. Commercial name                          : Dolby Digital
  74. Codec ID                                 : A_AC3
  75. Duration                                 : 1 h 52 min
  76. Bit rate mode                            : Constant
  77. Bit rate                                 : 640 kb/s
  78. Channel(s)                               : 6 channels
  79. Channel layout                           : L R C LFE Ls Rs
  80. Sampling rate                            : 48.0 kHz
  81. Frame rate                               : 31.250 FPS (1536 SPF)
  82. Compression mode                         : Lossy
  83. Stream size                              : 514 MiB (3%)
  84. Title                                    : 英语
  85. Language                                 : English
  86. Service kind                             : Complete Main
  87. Default                                  : No
  88. Forced                                   : No
  89. Text #1
  90. ID                                       : 4
  91. Format                                   : PGS
  92. Muxing mode                              : zlib
  93. Codec ID                                 : S_HDMV/PGS
  94. Codec ID/Info                            : Picture based subtitle format used on BDs/HD-DVDs
  95. Duration                                 : 1 h 44 min
  96. Bit rate                                 : 28.4 kb/s
  97. Count of elements                        : 2452
  98. Stream size                              : 21.1 MiB (0%)
  99. Title                                    : 英文
  100. Language                                 : English
  101. Default                                  : Yes
  102. Forced                                   : No
  103. Text #2
  104. ID                                       : 5
  105. Format                                   : PGS
  106. Muxing mode                              : zlib
  107. Codec ID                                 : S_HDMV/PGS
  108. Codec ID/Info                            : Picture based subtitle format used on BDs/HD-DVDs
  109. Duration                                 : 1 h 45 min
  110. Bit rate                                 : 31.4 kb/s
  111. Count of elements                        : 2666
  112. Stream size                              : 23.6 MiB (0%)
  113. Title                                    : 英文SDH
  114. Language                                 : English
  115. Default                                  : No
  116. Forced                                   : No
  117. Text #3
  118. ID                                       : 6
  119. Format                                   : PGS
  120. Muxing mode                              : zlib
  121. Codec ID                                 : S_HDMV/PGS
  122. Codec ID/Info                            : Picture based subtitle format used on BDs/HD-DVDs
  123. Duration                                 : 1 h 44 min
  124. Bit rate                                 : 28.0 kb/s
  125. Count of elements                        : 2444
  126. Stream size                              : 20.9 MiB (0%)
  127. Title                                    : 蓝光原盘简体
  128. Language                                 : Chinese
  129. Default                                  : No
  130. Forced                                   : No
  131. Text #4
  132. ID                                       : 7
  133. Format                                   : PGS
  134. Muxing mode                              : zlib
  135. Codec ID                                 : S_HDMV/PGS
  136. Codec ID/Info                            : Picture based subtitle format used on BDs/HD-DVDs
  137. Duration                                 : 1 h 44 min
  138. Bit rate                                 : 27.1 kb/s
  139. Count of elements                        : 2444
  140. Stream size                              : 20.3 MiB (0%)
  141. Title                                    : 蓝光原盘繁体-TW
  142. Language                                 : Chinese
  143. Default                                  : No
  144. Forced                                   : No
  145. Menu
  146. 00:00:00.000                             : en:Chapter 1
  147. 00:03:48.562                             : en:Chapter 2
  148. 00:09:05.837                             : en:Chapter 3
  149. 00:16:01.335                             : en:Chapter 4
  150. 00:20:46.036                             : en:Chapter 5
  151. 00:28:43.430                             : en:Chapter 6
  152. 00:37:41.968                             : en:Chapter 7
  153. 00:45:50.957                             : en:Chapter 8
  154. 00:54:19.715                             : en:Chapter 9
  155. 00:59:47.709                             : en:Chapter 10
  156. 01:06:01.749                             : en:Chapter 11
  157. 01:13:06.132                             : en:Chapter 12
  158. 01:18:13.230                             : en:Chapter 13
  159. 01:25:02.264                             : en:Chapter 14
  160. 01:32:21.161                             : en:Chapter 15
  161. 01:43:07.431                             : en:Chapter 16





此处一般会放置磁力链或种子下载链接,不过此链接需要注册会员才能看到,点击“立即注册”
磁力链下载【下载链接仅对注册会员开放,登陆后可见】
BT9527电影天堂 1、BT9527电影天堂提供的BT文件均来源于互联网抓取,只供网友学习交流、技术提升使用。
2、我们遵守BitTorrent点对点协议原则,任何版权问题请联系原资源发布商,我们不处理任何版权纠纷,谢谢!如有争议请联系邮箱:BT9527#hotmail.com(#换成@)
3、如果您发现某页面或地址有错误,请联系站长邮箱BT9527#hotmail.com(#换成@),我们会尽快处理。您的热心是对BT9527电影天堂最大的支持。
4、本站建议去正规影院观看电影以支持电影行业发展。
最新回复 (0)

你可以在 登录 or 注册 后,对此帖发表评论!

返回