虫虫危机[国粤英多音轨/简繁英字幕].A.Bugs.Life.1998.BluRay.2160p.x265.10bit.HDR.4Audio-MiniHD 15.86GB

版主小s 21天前 31

✔资源类型:BD-4K   ✔电影年份:更 早   ✔电影地区:欧美   ✔电影分类:喜剧

◎译  名 虫虫危机 / 虫虫特工队(港)
◎片  名 A Bug's Life
◎年  代 1998
◎产  地 美国
◎类  别 喜剧 / 动画 / 冒险
◎语  言 英语
◎上映日期 1998-11-25(美国)
◎IMDb链接 https://www.imdb.com/title/tt0120623/
◎豆瓣评分 7.9/10 (91235人评价)
◎豆瓣链接 https://movie.douban.com/subject/1291573/
◎片  长 95分钟
◎导  演 约翰·拉塞特 John Lasseter (id:1013917)
       安德鲁·斯坦顿 Andrew Stanton (id:1036450)
◎编  剧 安德鲁·斯坦顿 Andrew Stanton (id:1036450)
       唐·麦肯内里 Don McEnery (id:1291553)
       鲍勃·肖 Bob Shaw (id:1012419)
       大卫·雷诺兹 David Reynolds (id:1295520)
       鲍勃·肖 Bob Shaw (id:1297355)
◎演  员 大卫·弗利 Dave Foley (id:1055103)
       凯文·史派西 Kevin Spacey (id:1054432)
       茱莉亚·路易斯-德瑞弗斯 Julia Louis-Dreyfus (id:1055305)
       海顿·潘妮蒂尔 Hayden Panettiere (id:1025143)
       李·昂克里奇 Lee Unkrich (id:1022678)
       Rosalinde Mynster Rosalinde Mynster (id:1303938)
       比尔·法玛尔 Bill Farmer (id:1283454)
       Sam Gifaldi Sam Gifaldi (id:1284833)
       胡立成 Licheng Hu (id:1331134)
       达拉·K·安德森 Darla K. Anderson (id:1277201)
       Kevin Reher Kevin Reher (id:1295391)
       兰迪·纽曼 Randy Newman (id:1036596)
       莎朗·卡拉汉 Sharon Calahan (id:1279869)
       李·昂克里奇 Lee Unkrich (id:1022678)
       露丝·兰伯特 Ruth Lambert (id:1289321)
       威廉·科恩 William Cone (id:1281114)
       艾什·布兰农 Ash Brannon (id:1279193)
       Steve Johnson Steve Johnson (id:1287810)
       Michael Fong Michael Fong (id:1283935)
       彼得·德塞夫 Peter DeSève (id:1282302)
       David Lomax David Lomax (id:1290252)
       Fred Warter Fred Warter (id:1300470)

◎简  介
  菲力在蚂蚁王国里并不怎么受欢迎,尽管他发明了先进的收割机,然而阴差阳错,他竟然惹了大祸,公主妹妹小不点因此被蝗虫敌人捉去,而且蚂蚁的粮食也受到了蝗虫的威胁。即使菲力救出了小不点,但还是被赶出蚂蚁王国。只有他在外面的世界找到了对付蝗虫的办法,才有可能回到家园。                                    
                                菲力在城市中遇到了马戏团的一队昆虫。爬虫、蝴蝶、瓢虫、臭虫,他们都似乎身怀绝技,令菲力十分兴奋,于是菲力把他们请回蚂蚁王国对付蝗虫。一场恶战即将开始,昆虫们愈战愈勇,和菲力一同投入到斗争中。智勇双全的菲力也终于回到了蚂蚁王国中,受到大伙儿的赞赏。

◎获奖情况 (共7项)
  第71届奥斯卡金像奖 (1999)
  音乐/喜剧片最佳原创配乐(提名)
   └──兰迪·纽曼 (id:1036596)

  第56届金球奖 (1999)
  电影类 最佳原创配乐(提名)
   └──兰迪·纽曼 (id:1036596)

  第53届英国电影学院奖 (2000)
  电影奖 最佳特殊视觉效果(提名)

  第27届动画安妮奖 (1999)
  最佳动画长片(提名)
  最佳导演(提名)
  最佳编剧(提名)
  最佳艺术指导(提名)
   └──威廉·科恩 (id:1281114)

  1. ##### MediaInfo ######
  2. General
  3. Unique ID                                : 332517953647409136189563699435227084848 (0xFA28A0DEAA1F26F99D102FF5FFA07830)
  4. Complete name                            : A.Bugs.Life.1998.BluRay.2160p.x265.10bit.HDR.4Audio-MiniHD.mkv
  5. Format                                   : Matroska
  6. Format version                           : Version 4
  7. File size                                : 15.9 GiB
  8. Duration                                 : 1 h 34 min
  9. Overall bit rate mode                    : Variable
  10. Overall bit rate                         : 23.9 Mb/s
  11. Encoded date                             : UTC 2021-02-09 07:24:25
  12. Writing application                      : mkvmerge v53.0.0 ('Fool's Gold') 64-bit
  13. Writing library                          : libebml v1.4.1 + libmatroska v1.6.2
  14. Video
  15. ID                                       : 1
  16. Format                                   : HEVC
  17. Format/Info                              : High Efficiency Video Coding
  18. Format profile                           : Main 10@L5.1@High
  19. HDR format                               : SMPTE ST 2086, HDR10 compatible
  20. Codec ID                                 : V_MPEGH/ISO/HEVC
  21. Duration                                 : 1 h 34 min
  22. Bit rate                                 : 14.6 Mb/s
  23. Width                                    : 3 840 pixels
  24. Height                                   : 1 636 pixels
  25. Display aspect ratio                     : 2.35:1
  26. Frame rate mode                          : Constant
  27. Frame rate                               : 23.976 (24000/1001/53354) FPS
  28. Color space                              : YUV
  29. Chroma subsampling                       : 4:2:0
  30. Bit depth                                : 10 bits
  31. Bits/(Pixel*Frame)                       : 0.097
  32. Stream size                              : 9.69 GiB (61%)
  33. Writing library                          : x265 3.2+7-gb291a1c95+26:[Windows][#Erg`Djh#][@Yuuki] made by @Dongfangbubai
  34. Encoding settings                        : rc=crf / crf=18.0000 / qcomp=0.70 / qpstep=4 / stats-write=0 / stats-read=0 / vbv-maxrate=160000 / vbv-bufsize=160000 / vbv-init=0.9 / crf-max=0.0 / crf-min=0.0 / no-lossless / no-cu-lossless / aq-mode=1 / aq-strength=0.80 / cbqpoffs=-3 / crqpoffs=-3 / ipratio=1.40 / pbratio=1.30 / psy-rd=2.00 / psy-rdoq=3.00 / deblock=-1:-1 / ref=5 / limit-refs=0 / no-limit-modes / bframes=8 / b-adapt=2 / bframe-bias=0 / b-pyramid / b-intra / weightp / weightb / min-keyint=23 / max-keyint=240 / rc-lookahead=60 / gop-lookahead=0 / NTMzNTQ=uuDQuD2mJt9fsCf / scenecut=40 / radl=0 / max-cu-size=32 / min-cu-size=8 / me=3 / subme=4 / merange=25 / rdoq-level=2 / rd=4 / rdpenalty=1 / dynamic-rd=0.00 / no-rd-refine / ----- / no-cutree / no-sao / no-rect / no-amp / no-open-gop / wpp / pmode / pme / no-psnr / no-ssim / nr-intra=0 / nr-inter=0 / no-constrained-intra / no-strong-intra-smoothing / max-tu-size=32 / tu-inter-depth=2 / tu-intra-depth=2 / limit-tu=0 / qg-size=32 / qpmax=69 / qpmin=0 / ----- / cpuid=533541111039 / frame-threads=6 / numa-pools=54,- / log-level=2 / input-csp=1 / input-res=3840x1636 / interlace=0 / level-idc=0 / high-tier=1 / uhd-bd=0 / no-allow-non-conformance / no-repeat-headers / no-aud / hrd / info / hash=0 / no-temporal-layers / lookahead-slices=0 / no-splice / no-intra-refresh / no-ssim-rd / signhide / no-tskip / max-merge=3 / temporal-mvp / no-hme / no-analyze-src-pics / no-sao-non-deblock / selective-sao=0 / no-early-skip / no-rskip / no-fast-intra / no-tskip-fast / no-splitrd-skip / zone-count=0 / no-strict-cbr / no-rc-grain / no-const-vbv / sar=0 / overscan=0 / videoformat=5 / range=0 / colorprim=9 / transfer=16 / colormatrix=9 / chromaloc=0 / display-window=0 / master-display=G(13250,34500)B(7500,3000)R(34000,16000)WP(15635,16450)L(10000000,0) / cll=0,0 / min-luma=0 / max-luma=1023 / log2-max-poc-lsb=8 / vui-timing-info / vui-hrd-info / slices=1 / no-opt-qp-pps / no-opt-ref-list-length-pps / no-multi-pass-opt-rps / scenecut-bias=0.05 / no-opt-cu-delta-qp / no-aq-motion / hdr / hdr-opt / no-dhdr10-opt / no-idr-recovery-sei / analysis-reuse-level=5 / scale-factor=0 / refine-intra=0 / refine-inter=0 / refine-mv=1 / refine-ctu-distortion=0 / no-limit-sao / ctu-info=0 / no-lowpass-dct / refine-analysis-type=0 / copy-pic=1 / max-ausize-factor=1.0 / no-dynamic-refine / no-single-sei / no-hevc-aq / no-svt / no-field / qp-adaptation-range=1.00
  35. Default                                  : Yes
  36. Forced                                   : No
  37. Color range                              : Limited
  38. Color primaries                          : BT.2020
  39. Transfer characteristics                 : PQ
  40. Matrix coefficients                      : BT.2020 non-constant
  41. Mastering display color primaries        : Display P3
  42. Mastering display luminance              : min: 0.0000 cd/m2, max: 1000 cd/m2
  43. Audio #1
  44. ID                                       : 2
  45. Format                                   : MLP FBA 16-ch
  46. Format/Info                              : Meridian Lossless Packing FBA with 16-channel presentation
  47. Commercial name                          : Dolby TrueHD with Dolby Atmos
  48. Codec ID                                 : A_TRUEHD
  49. Duration                                 : 1 h 34 min
  50. Bit rate mode                            : Variable
  51. Bit rate                                 : 8 178 kb/s
  52. Maximum bit rate                         : 8 088 kb/s
  53. Channel(s)                               : 8 channels
  54. Channel layout                           : L R C LFE Ls Rs Lb Rb
  55. Sampling rate                            : 48.0 kHz
  56. Frame rate                               : 1 200.000 FPS (40 SPF)
  57. Compression mode                         : Lossless
  58. Stream size                              : 5.42 GiB (34%)
  59. Title                                    : 英语
  60. Language                                 : English
  61. Default                                  : No
  62. Forced                                   : No
  63. Number of dynamic objects                : 13
  64. Bed channel count                        : 1 channel
  65. Bed channel configuration                : LFE
  66. Audio #2
  67. ID                                       : 3
  68. Format                                   : AC-3
  69. Format/Info                              : Audio Coding 3
  70. Commercial name                          : Dolby Digital
  71. Codec ID                                 : A_AC3
  72. Duration                                 : 1 h 34 min
  73. Bit rate mode                            : Constant
  74. Bit rate                                 : 192 kb/s
  75. Channel(s)                               : 2 channels
  76. Channel layout                           : L R
  77. Sampling rate                            : 48.0 kHz
  78. Frame rate                               : 31.250 FPS (1536 SPF)
  79. Compression mode                         : Lossy
  80. Stream size                              : 130 MiB (1%)
  81. Title                                    : 央视国语
  82. Language                                 : Chinese
  83. Service kind                             : Complete Main
  84. Default                                  : No
  85. Forced                                   : No
  86. Audio #3
  87. ID                                       : 4
  88. Format                                   : AC-3
  89. Format/Info                              : Audio Coding 3
  90. Commercial name                          : Dolby Digital
  91. Codec ID                                 : A_AC3
  92. Duration                                 : 1 h 34 min
  93. Bit rate mode                            : Constant
  94. Bit rate                                 : 384 kb/s
  95. Channel(s)                               : 6 channels
  96. Channel layout                           : L R C LFE Ls Rs
  97. Sampling rate                            : 48.0 kHz
  98. Frame rate                               : 31.250 FPS (1536 SPF)
  99. Compression mode                         : Lossy
  100. Stream size                              : 261 MiB (2%)
  101. Title                                    : 台配国语
  102. Language                                 : Chinese
  103. Service kind                             : Complete Main
  104. Default                                  : Yes
  105. Forced                                   : No
  106. Audio #4
  107. ID                                       : 5
  108. Format                                   : AC-3
  109. Format/Info                              : Audio Coding 3
  110. Commercial name                          : Dolby Digital
  111. Codec ID                                 : A_AC3
  112. Duration                                 : 1 h 34 min
  113. Bit rate mode                            : Constant
  114. Bit rate                                 : 384 kb/s
  115. Channel(s)                               : 6 channels
  116. Channel layout                           : L R C LFE Ls Rs
  117. Sampling rate                            : 48.0 kHz
  118. Frame rate                               : 31.250 FPS (1536 SPF)
  119. Compression mode                         : Lossy
  120. Delay relative to video                  : 500 ms
  121. Stream size                              : 261 MiB (2%)
  122. Title                                    : 粤语
  123. Language                                 : Chinese
  124. Service kind                             : Complete Main
  125. Default                                  : No
  126. Forced                                   : No
  127. Text #1
  128. ID                                       : 6
  129. Format                                   : PGS
  130. Muxing mode                              : zlib
  131. Codec ID                                 : S_HDMV/PGS
  132. Codec ID/Info                            : Picture based subtitle format used on BDs/HD-DVDs
  133. Duration                                 : 1 h 34 min
  134. Bit rate                                 : 42.2 kb/s
  135. Count of elements                        : 2885
  136. Stream size                              : 28.5 MiB (0%)
  137. Title                                    : 英文
  138. Language                                 : English
  139. Default                                  : Yes
  140. Forced                                   : No
  141. Text #2
  142. ID                                       : 7
  143. Format                                   : PGS
  144. Muxing mode                              : zlib
  145. Codec ID                                 : S_HDMV/PGS
  146. Codec ID/Info                            : Picture based subtitle format used on BDs/HD-DVDs
  147. Duration                                 : 1 h 32 min
  148. Bit rate                                 : 31.9 kb/s
  149. Count of elements                        : 2952
  150. Stream size                              : 21.2 MiB (0%)
  151. Title                                    : 央视简中
  152. Language                                 : Chinese
  153. Default                                  : No
  154. Forced                                   : No
  155. Text #3
  156. ID                                       : 8
  157. Format                                   : PGS
  158. Muxing mode                              : zlib
  159. Codec ID                                 : S_HDMV/PGS
  160. Codec ID/Info                            : Picture based subtitle format used on BDs/HD-DVDs
  161. Duration                                 : 1 h 31 min
  162. Bit rate                                 : 32.2 kb/s
  163. Count of elements                        : 2635
  164. Stream size                              : 21.0 MiB (0%)
  165. Title                                    : 台配简中
  166. Language                                 : Chinese
  167. Default                                  : No
  168. Forced                                   : No
  169. Text #4
  170. ID                                       : 9
  171. Format                                   : PGS
  172. Muxing mode                              : zlib
  173. Codec ID                                 : S_HDMV/PGS
  174. Codec ID/Info                            : Picture based subtitle format used on BDs/HD-DVDs
  175. Duration                                 : 1 h 32 min
  176. Bit rate                                 : 51.7 kb/s
  177. Count of elements                        : 2117
  178. Stream size                              : 34.3 MiB (0%)
  179. Title                                    : 简英双语
  180. Language                                 : Chinese
  181. Default                                  : No
  182. Forced                                   : No
  183. Text #5
  184. ID                                       : 10
  185. Format                                   : PGS
  186. Muxing mode                              : zlib
  187. Codec ID                                 : S_HDMV/PGS
  188. Codec ID/Info                            : Picture based subtitle format used on BDs/HD-DVDs
  189. Duration                                 : 1 h 30 min
  190. Bit rate                                 : 34.4 kb/s
  191. Count of elements                        : 1932
  192. Stream size                              : 22.2 MiB (0%)
  193. Title                                    : 官方简中
  194. Language                                 : Chinese
  195. Default                                  : No
  196. Forced                                   : No
  197. Text #6
  198. ID                                       : 11
  199. Format                                   : PGS
  200. Muxing mode                              : zlib
  201. Codec ID                                 : S_HDMV/PGS
  202. Codec ID/Info                            : Picture based subtitle format used on BDs/HD-DVDs
  203. Duration                                 : 1 h 30 min
  204. Bit rate                                 : 34.8 kb/s
  205. Count of elements                        : 1932
  206. Stream size                              : 22.5 MiB (0%)
  207. Title                                    : 官方繁中
  208. Language                                 : Chinese
  209. Default                                  : No
  210. Forced                                   : No
  211. Menu
  212. 00:00:00.000                             : en:Chapter 1
  213. 00:04:28.476                             : en:Chapter 2
  214. 00:07:51.971                             : en:Chapter 3
  215. 00:09:51.966                             : en:Chapter 4
  216. 00:15:18.626                             : en:Chapter 5
  217. 00:17:19.163                             : en:Chapter 6
  218. 00:18:55.759                             : en:Chapter 7
  219. 00:20:04.494                             : en:Chapter 8
  220. 00:26:07.941                             : en:Chapter 9
  221. 00:27:48.917                             : en:Chapter 10
  222. 00:31:29.137                             : en:Chapter 11
  223. 00:32:43.002                             : en:Chapter 12
  224. 00:35:57.363                             : en:Chapter 13
  225. 00:39:42.213                             : en:Chapter 14
  226. 00:41:26.609                             : en:Chapter 15
  227. 00:45:08.372                             : en:Chapter 16
  228. 00:45:49.621                             : en:Chapter 17
  229. 00:47:16.667                             : en:Chapter 18
  230. 00:49:13.325                             : en:Chapter 19
  231. 00:52:50.625                             : en:Chapter 20
  232. 00:56:35.975                             : en:Chapter 21
  233. 00:58:49.192                             : en:Chapter 22
  234. 01:02:23.948                             : en:Chapter 23
  235. 01:04:26.988                             : en:Chapter 24
  236. 01:05:30.176                             : en:Chapter 25
  237. 01:06:47.002                             : en:Chapter 26
  238. 01:10:01.614                             : en:Chapter 27
  239. 01:10:49.078                             : en:Chapter 28
  240. 01:15:15.260                             : en:Chapter 29
  241. 01:17:29.311                             : en:Chapter 30
  242. 01:20:00.295                             : en:Chapter 31
  243. 01:21:12.909                             : en:Chapter 32
  244. 01:23:05.438                             : en:Chapter 33
  245. 01:24:15.925                             : en:Chapter 34
  246. 01:28:30.346                             : en:Chapter 35
  247. 01:29:55.932                             : en:Chapter 36





此处一般会放置磁力链或种子下载链接,不过此链接需要注册会员才能看到,点击“立即注册”
磁力链下载【下载链接仅对注册会员开放,登陆后可见】
BT9527电影天堂 1、BT9527电影天堂提供的BT文件均来源于互联网抓取,只供网友学习交流、技术提升使用。
2、我们遵守BitTorrent点对点协议原则,任何版权问题请联系原资源发布商,我们不处理任何版权纠纷,谢谢!如有争议请联系邮箱:BT9527#hotmail.com(#换成@)
3、如果您发现某页面或地址有错误,请联系站长邮箱BT9527#hotmail.com(#换成@),我们会尽快处理。您的热心是对BT9527电影天堂最大的支持。
4、本站建议去正规影院观看电影以支持电影行业发展。
最新回复 (0)

你可以在 登录 or 注册 后,对此帖发表评论!

返回
发新帖