蝙蝠侠:龙之魂[简繁英字幕].Batman.Soul.of.the.Dragon.2021.UHD.BluRay.2160p.x265.HDR.DTS-HD.MA5.1-MiniHD 19.77GB

版主小s 12天前 27

✔资源类型:BD-4K   ✔电影年份:2021   ✔电影地区:欧美   ✔电影分类:动作

◎译  名 蝙蝠侠:龙之魂 / 蝙蝠俠:龍的靈魂
◎片  名 Batman: Soul of the Dragon
◎年  代 2021
◎产  地 美国
◎类  别 动作 / 动画 / 冒险
◎语  言 英语
◎上映日期 2021-01-12(美国网络)
◎IMDb链接 https://www.imdb.com/title/tt12885852/
◎豆瓣评分 5.9/10 (1575人评价)
◎豆瓣链接 https://movie.douban.com/subject/35181083/
◎片  长 83分钟
◎导  演 刘山姆 Sam Liu (id:1332072)
◎编  剧 杰瑞米·亚当斯 Jeremy Adams (id:1389951)
◎演  员 大卫·君图力 David Giuntoli (id:1316178)
       马克·达卡斯考斯 Mark Dacascos (id:1031969)
       胡凯莉 Kelly Hu (id:1006984)
       迈克尔·加·怀特 Michael Jai White (id:1040509)
       吴汉章 James Hong (id:1031824)
       艾瑞克·鲍扎 Eric Bauza (id:1347752)
       郑智麟 Jamie Chung (id:1000068)
       克里斯·考克斯 Chris Cox (id:1388568)
       罗宾·阿特金·唐斯 Robin Atkin Downes (id:1316486)
       格蕾·德丽斯勒 Grey DeLisle (id:1086522)
       乔什·基顿 Josh Keaton (id:1055641)
       艾丽卡·鲁特雷尔 Erica Luttrell (id:1124566)
       帕特里克·赛兹 Patrick Seitz (id:1204313)
       刘山姆 Sam Liu (id:1332072)
       布鲁斯·提姆 Bruce W. Timm (id:1005116)
       萨姆·雷吉斯特 Sam Register (id:1447884)
       杰夫·瓦斯特 Jeff Wamester (id:1452454)

◎简  介
  上世纪70年代,一位失踪的武术老师是他忠诚而聪明但距离较远的学生(包括蝙蝠侠)寻找的对象。
  1. ##### MediaInfo ######
  2. General
  3. Unique ID                                : 82630366225136609962766419664993678455 (0x3E2A0797FC558297373087DA793A7477)
  4. Complete name                            : Batman.Soul.of.the.Dragon.2021.UHD.BluRay.2160p.x265.HDR.DTS-HD.MA5.1-MiniHD.mkv
  5. Format                                   : Matroska
  6. Format version                           : Version 4
  7. File size                                : 19.8 GiB
  8. Duration                                 : 1 h 22 min
  9. Overall bit rate mode                    : Variable
  10. Overall bit rate                         : 34.2 Mb/s
  11. Movie name                               : Batman?: Soul of the Dragon 2021 UHD BluRay 2160p - FRDS
  12. Encoded date                             : UTC 2022-04-01 01:45:47
  13. Writing application                      : mkvmerge v66.0.0 ('Josie') 64-bit
  14. Writing library                          : libebml v1.4.2 + libmatroska v1.6.4
  15. Cover                                    : Yes
  16. Attachments                              : cover.jfif / cover.jpg
  17. Video
  18. ID                                       : 1
  19. Format                                   : HEVC
  20. Format/Info                              : High Efficiency Video Coding
  21. Format profile                           : Main 10@L5.1@High
  22. HDR format                               : SMPTE ST 2086, HDR10 compatible
  23. Codec ID                                 : V_MPEGH/ISO/HEVC
  24. Duration                                 : 1 h 22 min
  25. Bit rate                                 : 31.8 Mb/s
  26. Width                                    : 3 840 pixels
  27. Height                                   : 2 160 pixels
  28. Display aspect ratio                     : 16:9
  29. Frame rate mode                          : Constant
  30. Frame rate                               : 23.976 (24000/1001/53354) FPS
  31. Color space                              : YUV
  32. Chroma subsampling                       : 4:2:0
  33. Bit depth                                : 10 bits
  34. Bits/(Pixel*Frame)                       : 0.160
  35. Stream size                              : 18.4 GiB (93%)
  36. Writing library                          : x265 3.3+3-g8f8e332f1+29:[Windows][#Erg`Djh#][@Yuuki] made by @Dongfangbubai
  37. Encoding settings                        : rc=crf / crf=18.0000 / qcomp=0.70 / qpstep=4 / stats-write=0 / stats-read=0 / vbv-maxrate=160000 / vbv-bufsize=160000 / vbv-init=0.9 / crf-max=0.0 / crf-min=0.0 / no-lossless / no-cu-lossless / aq-mode=3 / aq-strength=0.80 / cbqpoffs=-3 / crqpoffs=-3 / ipratio=1.40 / pbratio=1.30 / psy-rd=2.00 / psy-rdoq=3.00 / deblock=-1:-1 / ref=5 / limit-refs=0 / no-limit-modes / bframes=8 / b-adapt=2 / bframe-bias=0 / b-pyramid / b-intra / weightp / weightb / min-keyint=23 / max-keyint=240 / rc-lookahead=60 / gop-lookahead=0 / NTMzNTQ=uuDQuD2mJt9fsCf / scenecut=40 / hist-scenecut=0 / radl=0 / max-cu-size=32 / min-cu-size=8 / me=3 / subme=4 / merange=25 / rdoq-level=2 / rd=4 / rdpenalty=1 / dynamic-rd=0.00 / no-rd-refine / ----- / no-cutree / no-sao / rect / no-amp / no-open-gop / wpp / pmode / pme / no-psnr / no-ssim / nr-intra=0 / nr-inter=0 / no-constrained-intra / no-strong-intra-smoothing / max-tu-size=32 / tu-inter-depth=2 / tu-intra-depth=2 / limit-tu=0 / qg-size=32 / qpmax=69 / qpmin=0 / ----- / cpuid=533541176575 / frame-threads=6 / numa-pools=54,- / log-level=2 / input-csp=1 / input-res=3840x2160 / interlace=0 / level-idc=0 / high-tier=1 / uhd-bd=0 / no-allow-non-conformance / no-repeat-headers / no-aud / hrd / info / hash=0 / no-temporal-layers / lookahead-slices=0 / no-splice / no-intra-refresh / no-ssim-rd / signhide / no-tskip / max-merge=3 / temporal-mvp / no-frame-dup / no-hme / no-analyze-src-pics / no-sao-non-deblock / selective-sao=0 / no-early-skip / no-rskip / no-fast-intra / no-tskip-fast / no-splitrd-skip / zone-count=0 / no-strict-cbr / no-rc-grain / no-const-vbv / sar=0 / overscan=0 / videoformat=5 / range=0 / colorprim=9 / transfer=16 / colormatrix=9 / chromaloc=0 / display-window=0 / master-display=G(13250,34500)B(7500,3000)R(34000,16000)WP(15635,16450)L(40000000,50) / cll=0,0 / min-luma=0 / max-luma=1023 / log2-max-poc-lsb=8 / vui-timing-info / vui-hrd-info / slices=1 / no-opt-qp-pps / no-opt-ref-list-length-pps / no-multi-pass-opt-rps / scenecut-bias=0.05 / hist-threshold=0.01 / no-opt-cu-delta-qp / no-aq-motion / hdr10 / hdr10-opt / no-dhdr10-opt / no-idr-recovery-sei / analysis-reuse-level=0 / analysis-save-reuse-level=0 / analysis-load-reuse-level=0 / scale-factor=0 / refine-intra=0 / refine-inter=0 / refine-mv=1 / refine-ctu-distortion=0 / no-limit-sao / ctu-info=0 / no-lowpass-dct / refine-analysis-type=0 / copy-pic=1 / max-ausize-factor=1.0 / no-dynamic-refine / no-single-sei / no-hevc-aq / no-svt / no-field / qp-adaptation-range=1.00 / no-scenecut-aware-qpconformance-window-offsets / right=0 / bottom=0 / NTMzNTQ=
  38. Default                                  : Yes
  39. Forced                                   : No
  40. Color range                              : Limited
  41. Color primaries                          : BT.2020
  42. Transfer characteristics                 : PQ
  43. Matrix coefficients                      : BT.2020 non-constant
  44. Mastering display color primaries        : Display P3
  45. Mastering display luminance              : min: 0.0050 cd/m2, max: 4000 cd/m2
  46. Audio
  47. ID                                       : 2
  48. ID in the original source medium         : 4352 (0x1100)
  49. Format                                   : DTS XLL
  50. Format/Info                              : Digital Theater Systems
  51. Commercial name                          : DTS-HD Master Audio
  52. Codec ID                                 : A_DTS
  53. Duration                                 : 1 h 22 min
  54. Bit rate mode                            : Variable
  55. Bit rate                                 : 2 374 kb/s
  56. Channel(s)                               : 6 channels
  57. Channel layout                           : C L R Ls Rs LFE
  58. Sampling rate                            : 48.0 kHz
  59. Frame rate                               : 93.750 FPS (512 SPF)
  60. Bit depth                                : 24 bits
  61. Compression mode                         : Lossless
  62. Stream size                              : 1.37 GiB (7%)
  63. Language                                 : English
  64. Default                                  : Yes
  65. Forced                                   : No
  66. Original source medium                   : Blu-ray
  67. Text #1
  68. ID                                       : 3
  69. ID in the original source medium         : 4768 (0x12A0)
  70. Format                                   : PGS
  71. Muxing mode                              : zlib
  72. Codec ID                                 : S_HDMV/PGS
  73. Codec ID/Info                            : Picture based subtitle format used on BDs/HD-DVDs
  74. Duration                                 : 1 h 19 min
  75. Bit rate                                 : 24.7 kb/s
  76. Count of elements                        : 1892
  77. Stream size                              : 14.0 MiB (0%)
  78. Language                                 : English
  79. Default                                  : No
  80. Forced                                   : No
  81. Original source medium                   : Blu-ray
  82. Text #2
  83. ID                                       : 4
  84. ID in the original source medium         : 4769 (0x12A1)
  85. Format                                   : PGS
  86. Muxing mode                              : zlib
  87. Codec ID                                 : S_HDMV/PGS
  88. Codec ID/Info                            : Picture based subtitle format used on BDs/HD-DVDs
  89. Duration                                 : 1 h 21 min
  90. Bit rate                                 : 23.4 kb/s
  91. Count of elements                        : 1606
  92. Stream size                              : 13.7 MiB (0%)
  93. Language                                 : French
  94. Default                                  : No
  95. Forced                                   : No
  96. Original source medium                   : Blu-ray
  97. Text #3
  98. ID                                       : 5
  99. ID in the original source medium         : 4770 (0x12A2)
  100. Format                                   : PGS
  101. Muxing mode                              : zlib
  102. Codec ID                                 : S_HDMV/PGS
  103. Codec ID/Info                            : Picture based subtitle format used on BDs/HD-DVDs
  104. Duration                                 : 1 h 17 min
  105. Bit rate                                 : 198 b/s
  106. Count of elements                        : 14
  107. Stream size                              : 112 KiB (0%)
  108. Language                                 : Spanish
  109. Default                                  : No
  110. Forced                                   : No
  111. Original source medium                   : Blu-ray
  112. Text #4
  113. ID                                       : 6
  114. ID in the original source medium         : 4771 (0x12A3)
  115. Format                                   : PGS
  116. Muxing mode                              : zlib
  117. Codec ID                                 : S_HDMV/PGS
  118. Codec ID/Info                            : Picture based subtitle format used on BDs/HD-DVDs
  119. Duration                                 : 1 h 19 min
  120. Bit rate                                 : 16.7 kb/s
  121. Count of elements                        : 1285
  122. Stream size                              : 9.44 MiB (0%)
  123. Title                                    : CHS
  124. Language                                 : Chinese
  125. Default                                  : No
  126. Forced                                   : No
  127. Original source medium                   : Blu-ray
  128. Text #5
  129. ID                                       : 7
  130. ID in the original source medium         : 4772 (0x12A4)
  131. Format                                   : PGS
  132. Muxing mode                              : zlib
  133. Codec ID                                 : S_HDMV/PGS
  134. Codec ID/Info                            : Picture based subtitle format used on BDs/HD-DVDs
  135. Duration                                 : 1 h 19 min
  136. Bit rate                                 : 17.0 kb/s
  137. Count of elements                        : 1285
  138. Stream size                              : 9.61 MiB (0%)
  139. Title                                    : CHT
  140. Language                                 : Chinese
  141. Default                                  : No
  142. Forced                                   : No
  143. Original source medium                   : Blu-ray
  144. Text #6
  145. ID                                       : 8
  146. ID in the original source medium         : 4773 (0x12A5)
  147. Format                                   : PGS
  148. Muxing mode                              : zlib
  149. Codec ID                                 : S_HDMV/PGS
  150. Codec ID/Info                            : Picture based subtitle format used on BDs/HD-DVDs
  151. Duration                                 : 1 h 19 min
  152. Bit rate                                 : 30.3 kb/s
  153. Count of elements                        : 1285
  154. Stream size                              : 17.1 MiB (0%)
  155. Title                                    : Chs&Eng
  156. Language                                 : Chinese
  157. Default                                  : Yes
  158. Forced                                   : No
  159. Original source medium                   : Blu-ray
  160. Text #7
  161. ID                                       : 9
  162. ID in the original source medium         : 4774 (0x12A6)
  163. Format                                   : PGS
  164. Muxing mode                              : zlib
  165. Codec ID                                 : S_HDMV/PGS
  166. Codec ID/Info                            : Picture based subtitle format used on BDs/HD-DVDs
  167. Duration                                 : 1 h 19 min
  168. Bit rate                                 : 30.6 kb/s
  169. Count of elements                        : 1285
  170. Stream size                              : 17.3 MiB (0%)
  171. Title                                    : Cht&Eng
  172. Language                                 : Chinese
  173. Default                                  : Yes
  174. Forced                                   : No
  175. Original source medium                   : Blu-ray
  176. Text #8
  177. ID                                       : 10
  178. Format                                   : PGS
  179. Muxing mode                              : zlib
  180. Codec ID                                 : S_HDMV/PGS
  181. Codec ID/Info                            : Picture based subtitle format used on BDs/HD-DVDs
  182. Duration                                 : 1 h 19 min
  183. Bit rate                                 : 18.5 kb/s
  184. Count of elements                        : 1620
  185. Stream size                              : 10.5 MiB (0%)
  186. Title                                    : CHS
  187. Language                                 : Chinese
  188. Default                                  : No
  189. Forced                                   : No
  190. Text #9
  191. ID                                       : 11
  192. Format                                   : PGS
  193. Muxing mode                              : zlib
  194. Codec ID                                 : S_HDMV/PGS
  195. Codec ID/Info                            : Picture based subtitle format used on BDs/HD-DVDs
  196. Duration                                 : 1 h 19 min
  197. Bit rate                                 : 19.0 kb/s
  198. Count of elements                        : 1620
  199. Stream size                              : 10.7 MiB (0%)
  200. Title                                    : CHT
  201. Language                                 : Chinese
  202. Default                                  : No
  203. Forced                                   : No
  204. Menu
  205. 00:00:00.000                             : en:Chapter 01
  206. 00:05:18.901                             : en:Chapter 02
  207. 00:12:03.221                             : en:Chapter 03
  208. 00:19:55.568                             : en:Chapter 04
  209. 00:26:51.734                             : en:Chapter 05
  210. 00:31:52.576                             : en:Chapter 06
  211. 00:38:59.585                             : en:Chapter 07
  212. 00:46:00.132                             : en:Chapter 08
  213. 00:52:09.333                             : en:Chapter 09
  214. 01:00:06.311                             : en:Chapter 10
  215. 01:08:15.673                             : en:Chapter 11
  216. 01:14:33.341                             : en:Chapter 12
  217. 01:20:04.381                             : en:Chapter 13



此处一般会放置磁力链或种子下载链接,不过此链接需要注册会员才能看到,点击“立即注册”
磁力链下载【下载链接仅对注册会员开放,登陆后可见】
BT9527电影天堂 1、BT9527电影天堂提供的BT文件均来源于互联网抓取,只供网友学习交流、技术提升使用。
2、我们遵守BitTorrent点对点协议原则,任何版权问题请联系原资源发布商,我们不处理任何版权纠纷,谢谢!如有争议请联系邮箱:BT9527#hotmail.com(#换成@)
3、如果您发现某页面或地址有错误,请联系站长邮箱BT9527#hotmail.com(#换成@),我们会尽快处理。您的热心是对BT9527电影天堂最大的支持。
4、本站建议去正规影院观看电影以支持电影行业发展。
最新回复 (0)

你可以在 登录 or 注册 后,对此帖发表评论!

返回
发新帖