赌城风云[国英多音轨/简英特效字幕].Casino.1995.BluRay.2160p.x265.10bit.HDR.3Audio-MiniHD 23.27GB

版主小s 3月前 152

✔资源类型:BD-4K   ✔电影年份:更 早   ✔电影地区:欧美   ✔电影分类:剧情

◎译  名 赌城风云 / 赌国风云(台) / 赌场
◎片  名 Casino
◎年  代 1995
◎产  地 美国 / 法国
◎类  别 剧情 / 传记 / 犯罪
◎语  言 英语 / 法语
◎上映日期 1995-11-22
◎IMDb链接 https://www.imdb.com/title/tt0112641/
◎豆瓣评分 8.3/10 (40023人评价)
◎豆瓣链接 https://movie.douban.com/subject/1299799/
◎片  长 178 分钟
◎导  演 马丁·斯科塞斯 Martin Scorsese (id:1054425)
◎编  剧 尼古拉斯·派勒吉 Nicholas Pileggi (id:1032455)
       马丁·斯科塞斯 Martin Scorsese (id:1054425)
◎演  员 罗伯特·德尼罗 Robert De Niro (id:1054445)
       莎朗·斯通 Sharon Stone (id:1031822)
       乔·佩西 Joe Pesci (id:1004598)
       詹姆斯·伍兹 James Woods (id:1002689)
       唐·里克斯 Don Rickles (id:1044706)
       阿兰·金 Alan King (id:1108414)
       凯文·波拉克 Kevin Pollak (id:1041150)
       L·Q·琼斯 L.Q. Jones (id:1025296)
       迪克·史莫勒斯 Dick Smothers (id:1152975)
       弗兰克·文森特 Frank Vincent (id:1150295)
       约翰·布鲁姆 John Bloom (id:1067066)
       帕斯夸尔·卡哈诺 Pasquale Cajano (id:1070973)
       Vinny Vella Vinny Vella (id:1427517)
       弗兰基·阿瓦隆 Frankie Avalon (id:1049780)
       史蒂夫·艾伦 Steve Allen (id:1055914)
       杰尼·米多斯 Jayne Meadows (id:1055484)
       Jerry Vale Jerry Vale (id:1158885)
       凯瑟琳·斯科塞斯 Catherine Scorsese (id:1000607)
       奥斯卡·古德曼 Oscar Goodman (id:1095644)
       Cathy Scorsese Cathy Scorsese (id:1143091)
       保罗·赫尔曼 Paul Herman (id:1000541)
       Millicent Sheridan Millicent Sheridan (id:1147295)
       松久幸信 Nobu Matsuhisa (id:1319204)
       Ronald Maccone Ronald Maccone (id:1117851)
       约瑟夫·莱迪 Joseph P. Reidy (id:1295409)
       斯图尔特·尼斯贝特 Stuart Nisbet (id:1135422)
       汤米·德维托 Tommy DeVito (id:1085066)
       弗兰克·阿多尼斯 Frank Adonis (id:1041310)
       克雷格·文森特 Craig Vincent (id:1019358)
       David Varriale David Varriale (id:1148794)
       Bret McCormick Bret McCormick (id:1029630)
       理查德·雷西尔 Richard Riehle (id:1142526)
       史蒂夫·斯基里帕 Steve Schirripa (id:1296893)
       约瑟夫·莱迪 Joseph P. Reidy (id:1295409)
       Barbara De Fina Barbara De Fina (id:1281998)
       罗伯特·理查森 Robert Richardson (id:1050019)
       塞尔玛·斯昆梅克 Thelma Schoonmaker (id:1014210)
       埃伦·路易斯 Ellen Lewis (id:1289949)
       Jack G. Taylor Jr. Jack G. Taylor Jr. (id:1298967)
       里克·辛普森 Rick Simpson (id:1297667)
       丽塔·赖克 Rita Ryack (id:1296372)
       保罗·勒布朗 Paul LeBlanc (id:1289615)
       肯·迪亚兹 Ken Diaz (id:1282388)
       乔-安妮·史密斯-奥杰尔 Jo-Anne Smith-Ojeil (id:1297953)
       Mona Orr Mona Orr (id:1293642)
       Wayne Toth Wayne Toth (id:1299447)
       艾丽西娅·M·特里皮 Alicia M. Tripi (id:1299524)
       Peter Tothpal Peter Tothpal (id:1276622)
       勒内·达希尔·克比 René Dashiell Kerby (id:1281837)
       约瑟夫·莱迪 Joseph P. Reidy (id:1295409)
       克里斯托弗·埃文斯 Christopher Evans (id:1283336)
       克莱格·巴朗 Craig Barron (id:1277981)

◎简  介
  电影《赌城风云》是由大导演马丁·斯科塞斯与老拍档罗伯特·德尼罗的第八度合作。萨姆·“埃斯”·罗思坦(罗伯特·德尼罗 Robert De Niro 饰)抱着“赌博是一桩需要认真对待的事业”这个信念经营这一家拉斯维加斯的赌场。这个信念使他的赌场生意兴隆,而也让他成为富四一方的大亨。但是自从他娶了妓女出身的金姬(莎朗·斯通 Sharon Stone 饰)后,一切都发生了改变。金姬是个贪得无厌,嗜好酒和毒品的美丽女人,对前男友旧情不忘甚至给他送钱;黑社会老大派来保护萨姆的尼基(乔·佩西 Joe Pesci 饰)总是触犯法律,被警方禁止踏足赌场,还不量力要当老板;萨姆开除了不负责任的雇员却得罪了当地的官员;更糟糕的是,萨姆和昔日的合作伙伴间的摩擦加剧。所有的一切,都使萨姆心神不宁……

◎获奖情况 (共3项)
  第68届奥斯卡金像奖 (1996)
  最佳女主角(提名)
   └──莎朗·斯通 (id:1031822)

  第53届金球奖 (1996)
  电影类 最佳导演(提名)
   └──马丁·斯科塞斯 (id:1054425)
  电影类 剧情片最佳女主角
   └──莎朗·斯通 (id:1031822)

  1. ##### MediaInfo ######
  2. General
  3. Unique ID                                : 31389917454521574306341043044807985300 (0x179D7A6B2AF4218D8DFBF2183C2DC894)
  4. Complete name                            : Casino.1995.BluRay.2160p.x265.10bit.HDR.3Audio-MiniHD.mkv
  5. Format                                   : Matroska
  6. Format version                           : Version 4
  7. File size                                : 23.3 GiB
  8. Duration                                 : 2 h 58 min
  9. Overall bit rate mode                    : Variable
  10. Overall bit rate                         : 18.7 Mb/s
  11. Encoded date                             : UTC 2019-10-12 15:00:13
  12. Writing application                      : mkvmerge v20.0.0 ('I Am The Sun') 64-bit
  13. Writing library                          : libebml v1.3.5 + libmatroska v1.4.8
  14. Video
  15. ID                                       : 1
  16. Format                                   : HEVC
  17. Format/Info                              : High Efficiency Video Coding
  18. Format profile                           : Main 10@L5.1@High
  19. HDR format                               : SMPTE ST 2086, HDR10 compatible
  20. Codec ID                                 : V_MPEGH/ISO/HEVC
  21. Duration                                 : 2 h 58 min
  22. Bit rate                                 : 14.3 Mb/s
  23. Width                                    : 3 840 pixels
  24. Height                                   : 1 636 pixels
  25. Display aspect ratio                     : 2.35:1
  26. Frame rate mode                          : Constant
  27. Frame rate                               : 23.976 (24000/1001/53354) FPS
  28. Color space                              : YUV
  29. Chroma subsampling                       : 4:2:0
  30. Bit depth                                : 10 bits
  31. Bits/(Pixel*Frame)                       : 0.095
  32. Stream size                              : 17.8 GiB (76%)
  33. Writing library                          : x265 3.1+2-g764455672+26:[Windows][+Erg`Djh+][Yuuki ] made by @Dongfangbubai
  34. Encoding settings                        : rc=crf / crf=20.0000 / qcomp=0.75 / qpstep=4 / stats-write=0 / stats-read=0 / vbv-maxrate=160000 / vbv-bufsize=160000 / vbv-init=0.9 / crf-max=0.0 / crf-min=0.0 / no-lossless / no-cu-lossless / aq-mode=1 / aq-strength=0.90 / cbqpoffs=-3 / crqpoffs=-3 / ipratio=1.40 / pbratio=1.30 / psy-rd=2.00 / psy-rdoq=3.00 / deblock=-1:-1 / ref=5 / limit-refs=0 / no-limit-modes / bframes=8 / b-adapt=2 / bframe-bias=0 / b-pyramid / b-intra / weightp / weightb / min-keyint=23 / max-keyint=240 / rc-lookahead=60 / gop-lookahead=0 / NTMzNTQ=uuDQuD2mJt9fsCf / scenecut=40 / radl=0 / max-cu-size=32 / min-cu-size=8 / me=3 / subme=4 / merange=25 / rdoq-level=2 / rd=4 / rdpenalty=1 / dynamic-rd=0.00 / no-rd-refine / ----- / no-cutree / no-sao / no-rect / no-amp / no-open-gop / wpp / pmode / pme / no-psnr / no-ssim / nr-intra=0 / nr-inter=0 / no-constrained-intra / no-strong-intra-smoothing / max-tu-size=32 / tu-inter-depth=2 / tu-intra-depth=2 / limit-tu=0 / qg-size=32 / qpmax=69 / qpmin=0 / ----- / cpuid=533541111039 / frame-threads=6 / numa-pools=54,- / log-level=2 / input-csp=1 / input-res=3840x1636 / interlace=0 / level-idc=0 / high-tier=1 / uhd-bd=0 / no-allow-non-conformance / no-repeat-headers / no-aud / hrd / info / hash=0 / no-temporal-layers / lookahead-slices=0 / no-splice / no-intra-refresh / no-ssim-rd / signhide / no-tskip / max-merge=3 / temporal-mvp / no-analyze-src-pics / no-sao-non-deblock / no-early-skip / no-rskip / no-fast-intra / no-tskip-fast / no-splitrd-skip / zone-count=0 / no-strict-cbr / no-rc-grain / no-const-vbv / sar=0 / overscan=0 / videoformat=5 / range=0 / colorprim=9 / transfer=16 / colormatrix=9 / chromaloc=0 / display-window=0 / master-display=G(13250,34500)B(7500,3000)R(34000,16000)WP(15635,16450)L(10000000,50)cll=1000,243 / min-luma=0 / max-luma=1023 / log2-max-poc-lsb=8 / vui-timing-info / vui-hrd-info / slices=1 / no-opt-qp-pps / no-opt-ref-list-length-pps / no-multi-pass-opt-rps / scenecut-bias=0.05 / no-opt-cu-delta-qp / no-aq-motion / hdr / hdr-opt / no-dhdr10-opt / no-idr-recovery-sei / analysis-reuse-level=5 / scale-factor=0 / refine-intra=0 / refine-inter=0 / refine-mv=0 / refine-ctu-distortion=0 / no-limit-sao / ctu-info=0 / no-lowpass-dct / refine-analysis-type=0 / copy-pic=1 / max-ausize-factor=1.0 / no-dynamic-refine / no-single-sei / no-hevc-aq / no-svt / no-field / qp-adaptation-range=1.00
  35. Default                                  : Yes
  36. Forced                                   : No
  37. Color range                              : Limited
  38. Color primaries                          : BT.2020
  39. Transfer characteristics                 : PQ
  40. Matrix coefficients                      : BT.2020 non-constant
  41. Mastering display color primaries        : Display P3
  42. Mastering display luminance              : min: 0.0050 cd/m2, max: 1000 cd/m2
  43. Maximum Content Light Level              : 1000 cd/m2
  44. Maximum Frame-Average Light Level        : 243 cd/m2
  45. Audio #1
  46. ID                                       : 2
  47. Format                                   : DTS XLL X
  48. Format/Info                              : Digital Theater Systems
  49. Commercial name                          : DTS-HD Master Audio
  50. Codec ID                                 : A_DTS
  51. Duration                                 : 2 h 58 min
  52. Bit rate mode                            : Variable
  53. Bit rate                                 : 3 508 kb/s
  54. Channel(s)                               : 8 channels
  55. Channel(s)_Original                      : Object Based
  56. ChannelLayout_Original                   : Object Based
  57. Sampling rate                            : 48.0 kHz
  58. Frame rate                               : 93.750 FPS (512 SPF)
  59. Bit depth                                : 24 bits
  60. Stream size                              : 4.37 GiB (19%)
  61. Title                                    : 英语临境音
  62. Language                                 : English
  63. Default                                  : Yes
  64. Forced                                   : No
  65. Audio #2
  66. ID                                       : 3
  67. Format                                   : AC-3
  68. Format/Info                              : Audio Coding 3
  69. Commercial name                          : Dolby Digital
  70. Codec ID                                 : A_AC3
  71. Duration                                 : 2 h 58 min
  72. Bit rate mode                            : Constant
  73. Bit rate                                 : 640 kb/s
  74. Channel(s)                               : 6 channels
  75. Channel layout                           : L R C LFE Ls Rs
  76. Sampling rate                            : 48.0 kHz
  77. Frame rate                               : 31.250 FPS (1536 SPF)
  78. Compression mode                         : Lossy
  79. Stream size                              : 816 MiB (3%)
  80. Title                                    : 英语AC-3
  81. Language                                 : English
  82. Service kind                             : Complete Main
  83. Default                                  : No
  84. Forced                                   : No
  85. Audio #3
  86. ID                                       : 4
  87. Format                                   : AC-3
  88. Format/Info                              : Audio Coding 3
  89. Commercial name                          : Dolby Digital
  90. Codec ID                                 : A_AC3
  91. Duration                                 : 2 h 58 min
  92. Bit rate mode                            : Constant
  93. Bit rate                                 : 192 kb/s
  94. Channel(s)                               : 2 channels
  95. Channel layout                           : L R
  96. Sampling rate                            : 48.0 kHz
  97. Frame rate                               : 31.250 FPS (1536 SPF)
  98. Compression mode                         : Lossy
  99. Stream size                              : 245 MiB (1%)
  100. Title                                    : 央视国语
  101. Language                                 : Chinese
  102. Service kind                             : Complete Main
  103. Default                                  : No
  104. Forced                                   : No
  105. Text #1
  106. ID                                       : 5
  107. Format                                   : PGS
  108. Muxing mode                              : zlib
  109. Codec ID                                 : S_HDMV/PGS
  110. Codec ID/Info                            : Picture based subtitle format used on BDs/HD-DVDs
  111. Duration                                 : 2 h 55 min
  112. Bit rate                                 : 55.8 kb/s
  113. Count of elements                        : 7286
  114. Stream size                              : 70.0 MiB (0%)
  115. Title                                    : 英文
  116. Language                                 : English
  117. Default                                  : Yes
  118. Forced                                   : No
  119. Text #2
  120. ID                                       : 6
  121. Format                                   : PGS
  122. Muxing mode                              : zlib
  123. Codec ID                                 : S_HDMV/PGS
  124. Codec ID/Info                            : Picture based subtitle format used on BDs/HD-DVDs
  125. Duration                                 : 2 h 51 min
  126. Bit rate                                 : 61.4 kb/s
  127. Count of elements                        : 7236
  128. Stream size                              : 75.4 MiB (0%)
  129. Title                                    : 国配特效
  130. Language                                 : Chinese
  131. Default                                  : No
  132. Forced                                   : No
  133. Text #3
  134. ID                                       : 7
  135. Format                                   : PGS
  136. Muxing mode                              : zlib
  137. Codec ID                                 : S_HDMV/PGS
  138. Codec ID/Info                            : Picture based subtitle format used on BDs/HD-DVDs
  139. Duration                                 : 2 h 51 min
  140. Bit rate                                 : 74.3 kb/s
  141. Count of elements                        : 5578
  142. Stream size                              : 91.1 MiB (0%)
  143. Title                                    : 简英双语
  144. Language                                 : Chinese
  145. Default                                  : No
  146. Forced                                   : No
  147. Menu
  148. 00:00:00.000                             : en:Chapter 01
  149. 00:04:55.628                             : en:Chapter 02
  150. 00:21:58.233                             : en:Chapter 03
  151. 00:27:49.584                             : en:Chapter 04
  152. 00:33:46.733                             : en:Chapter 05
  153. 00:38:57.168                             : en:Chapter 06
  154. 00:58:23.124                             : en:Chapter 07
  155. 01:06:11.300                             : en:Chapter 08
  156. 01:26:24.637                             : en:Chapter 09
  157. 01:31:49.754                             : en:Chapter 10
  158. 02:00:29.513                             : en:Chapter 11
  159. 02:14:10.375                             : en:Chapter 12
  160. 02:28:31.569                             : en:Chapter 13
  161. 02:39:55.794                             : en:Chapter 14
  162. 02:46:56.464                             : en:Chapter 15
  163. 02:50:12.118                             : en:Chapter 16





此处一般会放置磁力链或种子下载链接,不过此链接需要注册会员才能看到,点击“立即注册”
磁力链下载【下载链接仅对注册会员开放,登陆后可见】
BT9527电影天堂 1、BT9527电影天堂提供的BT文件均来源于互联网抓取,只供网友学习交流、技术提升使用。
2、我们遵守BitTorrent点对点协议原则,任何版权问题请联系原资源发布商,我们不处理任何版权纠纷,谢谢!如有争议请联系邮箱:BT9527#hotmail.com(#换成@)
3、如果您发现某页面或地址有错误,请联系站长邮箱BT9527#hotmail.com(#换成@),我们会尽快处理。您的热心是对BT9527电影天堂最大的支持。
4、本站建议去正规影院观看电影以支持电影行业发展。
最新回复 (0)

你可以在 登录 or 注册 后,对此帖发表评论!

返回
发新帖