赤焰战场2[国英多音轨/简繁特效字幕].RED.2.2013.BluRay.2160p.x265.10bit.HDR.3Audio-MiniHD 25.07GB

版主小s 3月前 139

✔资源类型:BD-4K   ✔电影年份:2013   ✔电影地区:欧美   ✔电影分类:喜剧

◎译  名 赤焰战场2 / 猛火爆2(港) / 超危险特工2:狠战(台) / 红色危机2 / 夕阳红别动队2 / RED Returns / Red: The Legend
◎片  名 Red 2
◎年  代 2013
◎产  地 美国 / 法国 / 加拿大
◎类  别 喜剧 / 动作 / 犯罪
◎语  言 英语 / 俄语 / 法语
◎上映日期 2013-11-15(中国大陆) / 2013-07-19(美国)
◎IMDb链接 https://www.imdb.com/title/tt1821694/
◎豆瓣评分 7.2/10 (75804人评价)
◎豆瓣链接 https://movie.douban.com/subject/7916027/
◎片  长 116分钟
◎导  演 迪恩·帕里索 Dean Parisot (id:1293954)
◎编  剧 乔·霍贝尔 Jon Hoeber (id:1319517)
       埃里希·霍贝尔 Erich Hoeber (id:1319518)
       库里·哈米尔 Cully Hamner (id:1335557)
       沃伦·埃利斯 Warren Ellis (id:1335556)
◎演  员 布鲁斯·威利斯 Bruce Willis (id:1010509)
       约翰·马尔科维奇 John Malkovich (id:1041013)
       玛丽-露易丝·帕克 Mary-Louise Parker (id:1022573)
       李秉宪 Byung-hun Lee (id:1105108)
       海伦·米伦 Helen Mirren (id:1054390)
       凯瑟琳·泽塔-琼斯 Catherine Zeta-Jones (id:1056058)
       安东尼·霍普金斯 Anthony Hopkins (id:1054434)
       大卫·休里斯 David Thewlis (id:1031862)
       尼尔·麦克唐纳 Neal McDonough (id:1031878)
       提图斯·维里沃 Titus Welliver (id:1165630)
       加里克·哈根 Garrick Hagon (id:1331548)
       蒂姆·皮戈特-史密斯 Tim Pigott-Smith (id:1133433)
       布莱恩·考克斯 Brian Cox (id:1019027)
       菲利普·阿迪提 Philip Arditti (id:1331550)
       米切尔·马伦 Mitchell Mullen (id:1331549)
       史蒂文·伯克夫 Steven Berkoff (id:1025293)
       保罗·霍普金斯 Paul Hopkins (id:1096428)
       瓦拉斯塔·瓦拉纳 Vlasta Vrana (id:1300208)
       亚当·肖 Adam Shaw (id:1138895)
       安得烈·拜伦 Andrew Byron (id:1195416)
       泽维尔·劳伦斯 Xavier Laurent (id:1110090)
       丹·让诺特 Dan Jeannotte (id:1349130)
       李立宏 Lihong Li (id:1320458)
       莫·尤迪-拉穆尔 Moe Jeudy-Lamour (id:1422538)
       崔斯坦·D·拉勒 Tristan D. Lalla (id:1204506)
       艾玛·赫明 Emma Heming (id:1018101)
       Jong Kun Lee Jong Kun Lee (id:1331547)
       马丁·希姆斯 Martin Sims (id:1335558)
       亚伦·史维斯查 Alan Silvestri (id:1002819)
       Beatrix Aruna Pasztor Beatrix Aruna Pasztor (id:1033156)
       郑斗洪 Doo-hong Jung (id:1109833)

◎简  介
  前中情局特工弗兰克·摩西(布鲁斯·威利斯 Bruce Willis 饰)退休后远离杀戮战场,无比享受与莎拉(玛丽·露易斯·帕克 Mary-Louise Parker 饰)为伴的悠闲岁月。某天他毫无征兆地目击了老搭档马文·博格斯(约翰·马尔科维奇 John Malkovich 饰)惨死的一幕,自己也成为下一个被追杀的目标。一切源于冷战时代的龙葵之光计划,美国政府为了防止该计划流传网络,因此急于抹杀知情者弗兰克和马文。马文死而复生,救出被困的弗兰克,二人带着莎拉一路逃亡,寻找龙葵之光的关键人物。与此同时,维多利亚(海伦·米伦 Helen Mirren 饰)被英国军情六处命令追杀弗兰克等人,而曾和弗兰克有过交集的世界顶尖杀手韩朝培(李秉宪 饰)也受雇于美国政府尾随前来。久违的搏杀再起……                                       
                                    本片根据华伦·埃利斯(Warren Ellis)和库里·汉默(Cul...
  1. ##### MediaInfo ######
  2. General
  3. Unique ID                                : 326150556658038171914854258610924121385 (0xF55E4FF5D14AF9490606F716C85B6D29)
  4. Complete name                            : RED.2.2013.BluRay.2160p.x265.10bit.HDR.3Audio-MiniHD.mkv
  5. Format                                   : Matroska
  6. Format version                           : Version 4
  7. File size                                : 25.1 GiB
  8. Duration                                 : 1 h 55 min
  9. Overall bit rate mode                    : Variable
  10. Overall bit rate                         : 31.0 Mb/s
  11. Encoded date                             : UTC 2018-11-24 13:28:48
  12. Writing application                      : mkvmerge v20.0.0 ('I Am The Sun') 64-bit
  13. Writing library                          : libebml v1.3.5 + libmatroska v1.4.8
  14. Video
  15. ID                                       : 1
  16. Format                                   : HEVC
  17. Format/Info                              : High Efficiency Video Coding
  18. Format profile                           : Main 10@L5@Main
  19. HDR format                               : SMPTE ST 2086, HDR10 compatible
  20. Codec ID                                 : V_MPEGH/ISO/HEVC
  21. Duration                                 : 1 h 55 min
  22. Bit rate                                 : 22.3 Mb/s
  23. Width                                    : 3 840 pixels
  24. Height                                   : 1 604 pixels
  25. Display aspect ratio                     : 2.40:1
  26. Frame rate mode                          : Constant
  27. Frame rate                               : 23.976 (24000/1001/53354) FPS
  28. Color space                              : YUV
  29. Chroma subsampling                       : 4:2:0
  30. Bit depth                                : 10 bits
  31. Bits/(Pixel*Frame)                       : 0.151
  32. Stream size                              : 18.0 GiB (72%)
  33. Writing library                          : x265 2.5+6-gfe8703dcb+15:[Windows][GCC 7.1.0][64 bit] Asuna 10bit
  34. Encoding settings                        : cpuid=533541173503 / frame-threads=5 / numa-pools=-,84 / wpp / no-pmode / no-pme / no-psnr / no-ssim / log-level=2 / input-csp=1 / input-res=3840x1604 / interlace=0 / total-frames=166632 / level-idc=0 / high-tier=1 / uhd-bd=0 / ref=3 / no-allow-non-conformance / no-repeat-headers / no-annexb / no-aud / no-hrd / info / hash=0 / no-temporal-layers / no-open-gop / min-keyint=1 / keyint=360 / bframes=4 / b-adapt=2 / b-pyramid / bframe-bias=0 / rc-lookahead=40 / lookahead-slices=8 / NTMzNTQ=uuDQuD2mJt9fsCf / scenecut=40 / no-intra-refresh / ctu=32 / min-cu-size=8 / no-rect / no-amp / max-tu-size=32 / tu-inter-depth=1 / tu-intra-depth=1 / limit-tu=0 / rdoq-level=2 / dynamic-rd=0.00 / no-ssim-rd / signhide / no-tskip / nr-intra=0 / nr-inter=0 / no-constrained-intra / no-strong-intra-smoothing / max-merge=2 / limit-refs=3 / no-limit-modes / me=1 / subme=3 / merange=44 / temporal-mvp / weightp / weightb / no-analyze-src-pics / deblock=-1:-1 / no-sao / no-sao-non-deblock / rd=4 / no-early-skip / rskip / no-fast-intra / no-tskip-fast / no-cu-lossless / no-b-intra / rdpenalty=1 / psy-rd=1.80 / psy-rdoq=2.00 / no-rd-refine / analysis-reuse-mode=0 / no-lossless / cbqpoffs=-2 / crqpoffs=-2 / rc=crf / crf=21.6000 / qcomp=0.65 / qpstep=4 / stats-write=0 / stats-read=0 / ipratio=1.40 / pbratio=1.20 / aq-mode=3 / aq-strength=0.70 / cutree / zone-count=0 / no-strict-cbr / qg-size=32 / no-rc-grain / qpmax=69 / qpmin=0 / no-const-vbv / sar=0 / overscan=0 / videoformat=5 / range=0 / colorprim=9 / transfer=16 / colormatrix=9 / chromaloc=0 / display-window=0 / master-display=G(13250,34500)B(7500,3000)R(34000,16000)WP(15635,16450)L(100000000,500) / max-cll=1000,412 / min-luma=0 / max-luma=1023 / log2-max-poc-lsb=8 / vui-timing-info / vui-hrd-info / slices=1 / opt-qp-pps / opt-ref-list-length-pps / no-multi-pass-opt-rps / scenecut-bias=0.05 / no-opt-cu-delta-qp / no-aq-motion / hdr / no-hdr-opt / no-dhdr10-opt / analysis-reuse-level=5 / scale-factor=0 / refine-intra=0 / refine-inter=0 / refine-mv=0 / no-limit-sao / ctu-info=0
  35. Default                                  : Yes
  36. Forced                                   : No
  37. Color range                              : Limited
  38. Color primaries                          : BT.2020
  39. Transfer characteristics                 : PQ
  40. Matrix coefficients                      : BT.2020 non-constant
  41. Mastering display color primaries        : Display P3
  42. Mastering display luminance              : min: 0.0500 cd/m2, max: 10000 cd/m2
  43. Maximum Content Light Level              : 1000 cd/m2
  44. Maximum Frame-Average Light Level        : 412 cd/m2
  45. Audio #1
  46. ID                                       : 2
  47. Format                                   : MLP FBA 16-ch
  48. Format/Info                              : Meridian Lossless Packing FBA with 16-channel presentation
  49. Commercial name                          : Dolby TrueHD with Dolby Atmos
  50. Codec ID                                 : A_TRUEHD
  51. Duration                                 : 1 h 55 min
  52. Bit rate mode                            : Variable
  53. Bit rate                                 : 4 607 kb/s
  54. Maximum bit rate                         : 8 913 kb/s
  55. Channel(s)                               : 8 channels
  56. Channel layout                           : L R C LFE Ls Rs Lb Rb
  57. Sampling rate                            : 48.0 kHz
  58. Frame rate                               : 1 200.000 FPS (40 SPF)
  59. Compression mode                         : Lossless
  60. Stream size                              : 3.73 GiB (15%)
  61. Title                                    : 英语全景声
  62. Language                                 : English
  63. Default                                  : Yes
  64. Forced                                   : No
  65. Number of dynamic objects                : 11
  66. Bed channel count                        : 1 channel
  67. Bed channel configuration                : LFE
  68. Audio #2
  69. ID                                       : 3
  70. Format                                   : DTS
  71. Format/Info                              : Digital Theater Systems
  72. Codec ID                                 : A_DTS
  73. Duration                                 : 1 h 55 min
  74. Bit rate mode                            : Constant
  75. Bit rate                                 : 1 509 kb/s
  76. Channel(s)                               : 6 channels
  77. Channel layout                           : C L R Ls Rs LFE
  78. Sampling rate                            : 48.0 kHz
  79. Frame rate                               : 93.750 FPS (512 SPF)
  80. Bit depth                                : 24 bits
  81. Compression mode                         : Lossy
  82. Delay relative to video                  : 1 s 0 ms
  83. Stream size                              : 1.22 GiB (5%)
  84. Title                                    : 英语DTS
  85. Language                                 : English
  86. Default                                  : No
  87. Forced                                   : No
  88. Audio #3
  89. ID                                       : 4
  90. Format                                   : DTS XLL
  91. Format/Info                              : Digital Theater Systems
  92. Commercial name                          : DTS-HD Master Audio
  93. Codec ID                                 : A_DTS
  94. Duration                                 : 1 h 55 min
  95. Bit rate mode                            : Variable
  96. Bit rate                                 : 2 446 kb/s
  97. Channel(s)                               : 8 channels
  98. Channel layout                           : C L R LFE Lb Rb Lss Rss
  99. Sampling rate                            : 48.0 kHz
  100. Frame rate                               : 93.750 FPS (512 SPF)
  101. Bit depth                                : 16 bits
  102. Compression mode                         : Lossless
  103. Delay relative to video                  : 1 s 0 ms
  104. Stream size                              : 1.98 GiB (8%)
  105. Title                                    : 中影国语
  106. Language                                 : Chinese
  107. Default                                  : No
  108. Forced                                   : No
  109. Text #1
  110. ID                                       : 5
  111. Format                                   : PGS
  112. Muxing mode                              : zlib
  113. Codec ID                                 : S_HDMV/PGS
  114. Codec ID/Info                            : Picture based subtitle format used on BDs/HD-DVDs
  115. Duration                                 : 1 h 47 min
  116. Bit rate                                 : 25.0 kb/s
  117. Count of elements                        : 2581
  118. Stream size                              : 19.3 MiB (0%)
  119. Title                                    : 国配简中
  120. Language                                 : Chinese
  121. Default                                  : Yes
  122. Forced                                   : No
  123. Text #2
  124. ID                                       : 6
  125. Format                                   : PGS
  126. Muxing mode                              : zlib
  127. Codec ID                                 : S_HDMV/PGS
  128. Codec ID/Info                            : Picture based subtitle format used on BDs/HD-DVDs
  129. Duration                                 : 1 h 46 min
  130. Bit rate                                 : 65.3 kb/s
  131. Count of elements                        : 3575
  132. Stream size                              : 49.9 MiB (0%)
  133. Title                                    : 双语特效
  134. Language                                 : Chinese
  135. Default                                  : No
  136. Forced                                   : No
  137. Text #3
  138. ID                                       : 7
  139. Format                                   : PGS
  140. Muxing mode                              : zlib
  141. Codec ID                                 : S_HDMV/PGS
  142. Codec ID/Info                            : Picture based subtitle format used on BDs/HD-DVDs
  143. Duration                                 : 1 h 46 min
  144. Bit rate                                 : 24.9 kb/s
  145. Count of elements                        : 2964
  146. Stream size                              : 19.0 MiB (0%)
  147. Title                                    : 简体中文
  148. Language                                 : Chinese
  149. Default                                  : No
  150. Forced                                   : No
  151. Text #4
  152. ID                                       : 8
  153. Format                                   : PGS
  154. Muxing mode                              : zlib
  155. Codec ID                                 : S_HDMV/PGS
  156. Codec ID/Info                            : Picture based subtitle format used on BDs/HD-DVDs
  157. Duration                                 : 1 h 46 min
  158. Bit rate                                 : 26.0 kb/s
  159. Count of elements                        : 2964
  160. Stream size                              : 19.8 MiB (0%)
  161. Title                                    : 繁体中文
  162. Language                                 : Chinese
  163. Default                                  : No
  164. Forced                                   : No
  165. Menu
  166. 00:00:00.000                             : en:Chapter 1
  167. 00:08:17.622                             : en:Chapter 2
  168. 00:16:14.098                             : en:Chapter 3
  169. 00:22:40.150                             : en:Chapter 4
  170. 00:28:19.989                             : en:Chapter 5
  171. 00:35:19.158                             : en:Chapter 6
  172. 00:45:10.958                             : en:Chapter 7
  173. 00:51:15.363                             : en:Chapter 8
  174. 01:00:08.062                             : en:Chapter 9
  175. 01:07:33.299                             : en:Chapter 10
  176. 01:16:31.628                             : en:Chapter 11
  177. 01:23:02.560                             : en:Chapter 12
  178. 01:28:10.285                             : en:Chapter 13
  179. 01:33:26.684                             : en:Chapter 14
  180. 01:38:22.813                             : en:Chapter 15
  181. 01:44:43.735                             : en:Chapter 16
  182. 01:55:49.692                             : en:Chapter 17





此处一般会放置磁力链或种子下载链接,不过此链接需要注册会员才能看到,点击“立即注册”
磁力链下载【下载链接仅对注册会员开放,登陆后可见】
BT9527电影天堂 1、BT9527电影天堂提供的BT文件均来源于互联网抓取,只供网友学习交流、技术提升使用。
2、我们遵守BitTorrent点对点协议原则,任何版权问题请联系原资源发布商,我们不处理任何版权纠纷,谢谢!如有争议请联系邮箱:BT9527#hotmail.com(#换成@)
3、如果您发现某页面或地址有错误,请联系站长邮箱BT9527#hotmail.com(#换成@),我们会尽快处理。您的热心是对BT9527电影天堂最大的支持。
4、本站建议去正规影院观看电影以支持电影行业发展。
最新回复 (0)

你可以在 登录 or 注册 后,对此帖发表评论!

返回