超人总动员2[国粤英多音轨/简繁英特效字幕].Incredibles.2.2018.BluRay.2160p.x265.10bit.HDR.6Audio-MiniHD 17.34GB

版主小s 3月前 155

✔资源类型:BD-4K   ✔电影年份:2018   ✔电影地区:欧美   ✔电影分类:喜剧

◎译  名 超人总动员2 / 超人特攻队2(台) / 超人特工队2(港) / 超人家族2
◎片  名 Incredibles 2
◎年  代 2018
◎产  地 美国
◎类  别 喜剧 / 动作 / 动画 / 冒险
◎语  言 英语
◎上映日期 2018-06-22(中国大陆) / 2018-06-15(美国)
◎IMDb链接 https://www.imdb.com/title/tt3606756/
◎豆瓣评分 7.8/10 (250524人评价)
◎豆瓣链接 https://movie.douban.com/subject/25849049/
◎片  长 118分钟
◎导  演 布拉德·伯德 Brad Bird (id:1027204)
◎编  剧 布拉德·伯德 Brad Bird (id:1027204)
◎演  员 格雷格·T·尼尔森 Craig T. Nelson (id:1002721)
       霍利·亨特 Holly Hunter (id:1031838)
       莎拉·沃威尔 Sarah Vowell (id:1186797)
       赫克·米尔纳 Huck Milner (id:1393398)
       伊莱·富西尔 Eli Fucile (id:1395786)
       凯瑟琳·基纳 Catherine Keener (id:1002681)
       塞缪尔·杰克逊 Samuel L. Jackson (id:1054408)
       伊莎贝拉·罗西里尼 Isabella Rossellini (id:1019046)
       鲍勃·奥登科克 Bob Odenkirk (id:1027856)
       布拉德·伯德 Brad Bird (id:1027204)
       索菲亚·布什 Sophia Bush (id:1009254)
       乔纳森·班克斯 Jonathan Banks (id:1061460)
       约翰·拉岑贝格 John Ratzenberger (id:1002680)
       金伯利·阿代尔·克拉克 Kimberly Adair Clark (id:1393399)
       托亚·特纳 Toya Turner (id:1393400)
       杨千嬅 Miriam Yeung (id:1173971)
       妮可·帕拉迪斯·格林德尔 Nicole Paradis Grindle (id:1355146)
       约翰·拉塞特 John Lasseter (id:1013917)
       约翰·沃克 John Walker (id:1045862)
       迈克·吉亚奇诺 Michael Giacchino (id:1027937)
       斯蒂芬·沙弗 Stephen Schaffer (id:1296820)

◎简  介
  在一次挖地超人制造的大混乱中,超人家庭大力神巴鲍伯(格雷格·T·尼尔森 Craig T. Nelson配音)和弹力女超人巴荷莉(霍利·亨特 Holly Hunter 配音)和他们的子女巴小倩(莎拉·沃威尔 Sarah Vowell 配音)、巴小飞(赫克·米尔纳 Huck Milner 配音)使出浑身解数,然而不仅不能抓住狡猾的敌人,而且还因为对城市破坏太大而导致失去了政府的支持。此后不久,电信集团大亨温斯顿·狄弗(鲍勃·奥登科克 Bob Odenkirk 配音)通过酷冰侠鲁休斯(塞缪尔·杰克逊 Samuel L. Jackson 配音)找到鲍伯一家,希望将该公司的前沿技术应用到超人身上,更好地维护世界和平。可是狄弗只希望雇佣荷莉,偏偏荷莉大展雄风,成为了所有超人族群的偶像,这可令担任奶爸的鲍伯心有不甘。                                       
                                    而就在此时,神秘对手悄然出现,似乎正试图摧毁荷...

◎获奖情况 (共34项)
  第91届奥斯卡金像奖 (2019)
  最佳动画长片(提名)

  第76届金球奖 (2019)
  电影类 最佳动画长片(提名)

  第72届英国电影学院奖 (2019)
  电影奖 最佳动画片(提名)

  第46届动画安妮奖 (2019)
  最佳动画长片(提名)
  最佳导演(提名)
   └──布拉德·伯德 (id:1027204)
  最佳编剧(提名)
   └──布拉德·伯德 (id:1027204)
  最佳配音(提名)
   └──霍利·亨特 (id:1031838)
  最佳配乐
  最佳剪辑(提名)
  最佳分镜
  最佳动画角色(提名)
  最佳角色设计(提名)
  最佳动画效果(提名)

  第61届日本电影蓝丝带奖 (2019)
  年度十佳海外影片

  第30届美国制片人工会奖 (2019)
  最佳动画片制片人奖(提名)

  第69届美国剪辑工会奖 (2019)
  动画片最佳剪辑(提名)
   └──斯蒂芬·沙弗 (id:1296820)

  第23届美国艺术指导工会奖 (2019)
  电影奖 最佳动画电影艺术指导(提名)
   └──拉夫·埃格尔斯顿 (id:1028474)

  第17届美国视觉效果协会奖 (2019)
  最佳动画电影视觉效果(提名)
  最佳动画电影CG动画角色(提名)
  最佳动画电影CG背景(提名)
  最佳电影模型(提名)
  最佳动画电影模拟动画效果(提名)

  第66届美国音效剪辑协会奖 (2019)
  金卷轴奖 最佳动画片音效剪辑(提名)

  第55届美国声音效果协会奖 (2019)
  动画电影最佳音效(提名)

  第90届美国国家评论协会奖 (2018)
  最佳动画片

  第24届美国评论家选择电影奖 (2019)
  最佳动画片(提名)

  第23届金卫星奖 (2019)
  电影部门 最佳动画片(提名)

  第17届华盛顿影评人协会奖 (2018)
  最佳动画片(提名)
  最佳配音(提名)
   └──霍利·亨特 (id:1031838)

  第44届洛杉矶影评人协会奖 (2018)
  最佳动画片(提名)

  第31届芝加哥影评人协会奖 (2018)
  最佳动画片(提名)

  第17届旧金山影评人协会奖 (2018)
  最佳动画片(提名)

  第22届美国在线影评人协会奖 (2019)
  最佳动画片(提名)

  第5届豆瓣电影年度榜单 (2018)
  评分最高的动画片(提名)

  1. ##### MediaInfo ######
  2. General
  3. Unique ID                                : 199934822851204460261986722050316367946 (0x966A0BD56F04616DF1C46118C99AF84A)
  4. Complete name                            : Incredibles.2.2018.BluRay.2160p.x265.10bit.HDR.6Audio-MiniHD.mkv
  5. Format                                   : Matroska
  6. Format version                           : Version 4
  7. File size                                : 17.3 GiB
  8. Duration                                 : 1 h 57 min
  9. Overall bit rate mode                    : Variable
  10. Overall bit rate                         : 21.1 Mb/s
  11. Encoded date                             : UTC 2018-11-11 10:00:58
  12. Writing application                      : mkvmerge v20.0.0 ('I Am The Sun') 64-bit
  13. Writing library                          : libebml v1.3.5 + libmatroska v1.4.8
  14. Video
  15. ID                                       : 1
  16. Format                                   : HEVC
  17. Format/Info                              : High Efficiency Video Coding
  18. Format profile                           : Main 10@L5.1@High
  19. HDR format                               : SMPTE ST 2086, HDR10 compatible
  20. Codec ID                                 : V_MPEGH/ISO/HEVC
  21. Duration                                 : 1 h 57 min
  22. Bit rate                                 : 10.9 Mb/s
  23. Width                                    : 3 840 pixels
  24. Height                                   : 1 608 pixels
  25. Display aspect ratio                     : 2.40:1
  26. Frame rate mode                          : Constant
  27. Frame rate                               : 23.976 (24000/1001/53354) FPS
  28. Color space                              : YUV
  29. Chroma subsampling                       : 4:2:0
  30. Bit depth                                : 10 bits
  31. Bits/(Pixel*Frame)                       : 0.074
  32. Stream size                              : 8.99 GiB (52%)
  33. Writing library                          : x265 2.8+4-g0ad419482+18:[Windows][GCC 7.1.0][64 bit] Yuuki 10bit
  34. Encoding settings                        : rc=crf / crf=18.0000 / qcomp=0.70 / qpstep=4 / vbv-maxrate=160000 / vbv-bufsize=160000 / vbv-init=0.9 / crf-max=0.0 / crf-min=0.0 / aq-mode=3 / aq-strength=0.80 / cbqpoffs=-3 / crqpoffs=-3 / ipratio=1.40 / pbratio=1.20 / psy-rd=2.00 / psy-rdoq=5.00 / deblock=-1:-1 / ref=5 / bframes=9 / b-adapt=2 / bframe-bias=0 / b-pyramid / b-intra / weightp / weightb / min-keyint=23 / max-keyint=300 / rc-lookahead=40 / gop-lookahead=0 / NTMzNTQ=uuDQuD2mJt9fsCf / scenecut=40 / radl=0 / max-cu-size=32 / min-cu-size=8 / me=3 / subme=4 / merange=25 / rdoq-level=2 / rd=4 / rdpenalty=1 / ----- / cutree / no-sao / no-rect / no-amp / no-open-gop / wpp / no-pmode / no-pme / no-psnr / no-ssim / nr-intra=0 / nr-inter=0 / no-constrained-intra / no-strong-intra-smoothing / max-tu-size=32 / tu-inter-depth=2 / tu-intra-depth=2 / limit-tu=4 / qg-size=32 / qpmax=69 / qpmin=0 / ----- / cpuid=533541111039 / frame-threads=5 / numa-pools=84,- / log-level=2 / input-csp=1 / input-res=3840x1608 / interlace=0 / level-idc=0 / high-tier=1 / uhd-bd=0 / no-allow-non-conformance / no-repeat-headers / no-aud / hrd / info / hash=0 / no-temporal-layers / lookahead-slices=4 / no-intra-refresh / dynamic-rd=0.00 / no-ssim-rd / signhide / no-tskip / max-merge=3 / limit-refs=2 / limit-modes / temporal-mvp / no-analyze-src-pics / no-sao-non-deblock / no-early-skip / no-rskip / no-fast-intra / no-tskip-fast / no-cu-lossless / no-splitrd-skip / no-rd-refine / no-lossless / zone-count=0 / no-strict-cbr / no-rc-grain / no-const-vbv / sar=0 / overscan=0 / videoformat=5 / range=0 / colorprim=9 / transfer=16 / colormatrix=9 / chromaloc=0 / display-window=0 / master-display=G(13250,34500)B(7500,3000)R(34000,16000)WP(15635,16450)L(10000000,0) / max-cll=0,0 / min-luma=0 / max-luma=1023 / log2-max-poc-lsb=8 / vui-timing-info / vui-hrd-info / slices=1 / no-opt-qp-pps / no-opt-ref-list-length-pps / no-multi-pass-opt-rps / scenecut-bias=0.05 / no-opt-cu-delta-qp / no-aq-motion / hdr / hdr-opt / no-dhdr10-opt / no-idr-recovery-sei / analysis-reuse-level=5 / scale-factor=0 / refine-intra=0 / refine-inter=0 / refine-mv=0 / no-limit-sao / ctu-info=0 / no-lowpass-dct / refine-mv-type=0 / copy-pic=1 / max-ausize-factor=1.0 / no-dynamic-refine / no-single-sei
  35. Default                                  : Yes
  36. Forced                                   : No
  37. Color range                              : Limited
  38. Color primaries                          : BT.2020
  39. Transfer characteristics                 : PQ
  40. Matrix coefficients                      : BT.2020 non-constant
  41. Mastering display color primaries        : Display P3
  42. Mastering display luminance              : min: 0.0000 cd/m2, max: 1000 cd/m2
  43. Audio #1
  44. ID                                       : 2
  45. Format                                   : MLP FBA 16-ch
  46. Format/Info                              : Meridian Lossless Packing FBA with 16-channel presentation
  47. Commercial name                          : Dolby TrueHD with Dolby Atmos
  48. Codec ID                                 : A_TRUEHD
  49. Duration                                 : 1 h 57 min
  50. Bit rate mode                            : Variable
  51. Bit rate                                 : 7 005 kb/s
  52. Maximum bit rate                         : 8 580 kb/s
  53. Channel(s)                               : 8 channels
  54. Channel layout                           : L R C LFE Ls Rs Lb Rb
  55. Sampling rate                            : 48.0 kHz
  56. Frame rate                               : 1 200.000 FPS (40 SPF)
  57. Compression mode                         : Lossless
  58. Stream size                              : 5.77 GiB (33%)
  59. Title                                    : 英语全景声
  60. Language                                 : English
  61. Default                                  : Yes
  62. Forced                                   : No
  63. Number of dynamic objects                : 13
  64. Bed channel count                        : 1 channel
  65. Bed channel configuration                : LFE
  66. Audio #2
  67. ID                                       : 3
  68. Format                                   : AC-3
  69. Format/Info                              : Audio Coding 3
  70. Commercial name                          : Dolby Digital
  71. Codec ID                                 : A_AC3
  72. Duration                                 : 1 h 57 min
  73. Bit rate mode                            : Constant
  74. Bit rate                                 : 640 kb/s
  75. Channel(s)                               : 6 channels
  76. Channel layout                           : L R C LFE Ls Rs
  77. Sampling rate                            : 48.0 kHz
  78. Frame rate                               : 31.250 FPS (1536 SPF)
  79. Compression mode                         : Lossy
  80. Stream size                              : 539 MiB (3%)
  81. Title                                    : 英语AC-3
  82. Language                                 : English
  83. Service kind                             : Complete Main
  84. Default                                  : No
  85. Forced                                   : No
  86. Audio #3
  87. ID                                       : 4
  88. Format                                   : AC-3
  89. Format/Info                              : Audio Coding 3
  90. Commercial name                          : Dolby Digital
  91. Codec ID                                 : A_AC3
  92. Duration                                 : 1 h 57 min
  93. Bit rate mode                            : Constant
  94. Bit rate                                 : 640 kb/s
  95. Channel(s)                               : 6 channels
  96. Channel layout                           : L R C LFE Ls Rs
  97. Sampling rate                            : 48.0 kHz
  98. Frame rate                               : 31.250 FPS (1536 SPF)
  99. Compression mode                         : Lossy
  100. Stream size                              : 539 MiB (3%)
  101. Title                                    : 八一国语
  102. Language                                 : Chinese
  103. Service kind                             : Complete Main
  104. Default                                  : No
  105. Forced                                   : No
  106. Audio #4
  107. ID                                       : 5
  108. Format                                   : AC-3
  109. Format/Info                              : Audio Coding 3
  110. Commercial name                          : Dolby Digital
  111. Codec ID                                 : A_AC3
  112. Duration                                 : 1 h 57 min
  113. Bit rate mode                            : Constant
  114. Bit rate                                 : 640 kb/s
  115. Channel(s)                               : 6 channels
  116. Channel layout                           : L R C LFE Ls Rs
  117. Sampling rate                            : 48.0 kHz
  118. Frame rate                               : 31.250 FPS (1536 SPF)
  119. Compression mode                         : Lossy
  120. Stream size                              : 539 MiB (3%)
  121. Title                                    : 台配国语
  122. Language                                 : Chinese
  123. Service kind                             : Complete Main
  124. Default                                  : No
  125. Forced                                   : No
  126. Audio #5
  127. ID                                       : 6
  128. Format                                   : AC-3
  129. Format/Info                              : Audio Coding 3
  130. Commercial name                          : Dolby Digital
  131. Codec ID                                 : A_AC3
  132. Duration                                 : 1 h 57 min
  133. Bit rate mode                            : Constant
  134. Bit rate                                 : 640 kb/s
  135. Channel(s)                               : 6 channels
  136. Channel layout                           : L R C LFE Ls Rs
  137. Sampling rate                            : 48.0 kHz
  138. Frame rate                               : 31.250 FPS (1536 SPF)
  139. Compression mode                         : Lossy
  140. Stream size                              : 539 MiB (3%)
  141. Title                                    : 粤语
  142. Language                                 : Chinese
  143. Service kind                             : Complete Main
  144. Default                                  : No
  145. Forced                                   : No
  146. Audio #6
  147. ID                                       : 7
  148. Format                                   : AC-3
  149. Format/Info                              : Audio Coding 3
  150. Commercial name                          : Dolby Digital
  151. Codec ID                                 : A_AC3
  152. Duration                                 : 1 h 57 min
  153. Bit rate mode                            : Constant
  154. Bit rate                                 : 320 kb/s
  155. Channel(s)                               : 2 channels
  156. Channel layout                           : L R
  157. Sampling rate                            : 48.0 kHz
  158. Frame rate                               : 31.250 FPS (1536 SPF)
  159. Compression mode                         : Lossy
  160. Stream size                              : 270 MiB (2%)
  161. Title                                    : 导评
  162. Language                                 : English
  163. Service kind                             : Complete Main
  164. Default                                  : No
  165. Forced                                   : No
  166. Text #1
  167. ID                                       : 8
  168. Format                                   : PGS
  169. Muxing mode                              : zlib
  170. Codec ID                                 : S_HDMV/PGS
  171. Codec ID/Info                            : Picture based subtitle format used on BDs/HD-DVDs
  172. Duration                                 : 1 h 49 min
  173. Bit rate                                 : 47.1 kb/s
  174. Count of elements                        : 4641
  175. Stream size                              : 37.0 MiB (0%)
  176. Title                                    : 八一简中特效
  177. Language                                 : Chinese
  178. Default                                  : Yes
  179. Forced                                   : No
  180. Text #2
  181. ID                                       : 9
  182. Format                                   : PGS
  183. Muxing mode                              : zlib
  184. Codec ID                                 : S_HDMV/PGS
  185. Codec ID/Info                            : Picture based subtitle format used on BDs/HD-DVDs
  186. Duration                                 : 1 h 49 min
  187. Bit rate                                 : 65.8 kb/s
  188. Count of elements                        : 3618
  189. Stream size                              : 51.7 MiB (0%)
  190. Title                                    : 简英双语特效
  191. Language                                 : Chinese
  192. Default                                  : No
  193. Forced                                   : No
  194. Text #3
  195. ID                                       : 10
  196. Format                                   : PGS
  197. Muxing mode                              : zlib
  198. Codec ID                                 : S_HDMV/PGS
  199. Codec ID/Info                            : Picture based subtitle format used on BDs/HD-DVDs
  200. Duration                                 : 1 h 56 min
  201. Bit rate                                 : 34.1 kb/s
  202. Count of elements                        : 3542
  203. Stream size                              : 28.3 MiB (0%)
  204. Title                                    : 八一简中
  205. Language                                 : Chinese
  206. Default                                  : No
  207. Forced                                   : No
  208. Text #4
  209. ID                                       : 11
  210. Format                                   : PGS
  211. Muxing mode                              : zlib
  212. Codec ID                                 : S_HDMV/PGS
  213. Codec ID/Info                            : Picture based subtitle format used on BDs/HD-DVDs
  214. Duration                                 : 1 h 56 min
  215. Bit rate                                 : 32.3 kb/s
  216. Count of elements                        : 4167
  217. Stream size                              : 26.8 MiB (0%)
  218. Title                                    : 台配繁中
  219. Language                                 : Chinese
  220. Default                                  : No
  221. Forced                                   : No
  222. Text #5
  223. ID                                       : 12
  224. Format                                   : PGS
  225. Muxing mode                              : zlib
  226. Codec ID                                 : S_HDMV/PGS
  227. Codec ID/Info                            : Picture based subtitle format used on BDs/HD-DVDs
  228. Duration                                 : 1 h 56 min
  229. Bit rate                                 : 24.7 kb/s
  230. Count of elements                        : 3526
  231. Stream size                              : 20.5 MiB (0%)
  232. Title                                    : 粤配繁中
  233. Language                                 : Chinese
  234. Default                                  : No
  235. Forced                                   : No
  236. Text #6
  237. ID                                       : 13
  238. Format                                   : PGS
  239. Muxing mode                              : zlib
  240. Codec ID                                 : S_HDMV/PGS
  241. Codec ID/Info                            : Picture based subtitle format used on BDs/HD-DVDs
  242. Duration                                 : 1 h 56 min
  243. Bit rate                                 : 27.9 kb/s
  244. Count of elements                        : 3526
  245. Stream size                              : 23.2 MiB (0%)
  246. Title                                    : BD原盘繁中
  247. Language                                 : Chinese
  248. Default                                  : No
  249. Forced                                   : No
  250. Text #7
  251. ID                                       : 14
  252. Format                                   : PGS
  253. Muxing mode                              : zlib
  254. Codec ID                                 : S_HDMV/PGS
  255. Codec ID/Info                            : Picture based subtitle format used on BDs/HD-DVDs
  256. Duration                                 : 1 h 56 min
  257. Bit rate                                 : 43.6 kb/s
  258. Count of elements                        : 3898
  259. Stream size                              : 36.5 MiB (0%)
  260. Title                                    : 导评繁中
  261. Language                                 : Chinese
  262. Default                                  : No
  263. Forced                                   : No
  264. Text #8
  265. ID                                       : 15
  266. Format                                   : PGS
  267. Muxing mode                              : zlib
  268. Codec ID                                 : S_HDMV/PGS
  269. Codec ID/Info                            : Picture based subtitle format used on BDs/HD-DVDs
  270. Duration                                 : 1 h 57 min
  271. Bit rate                                 : 51.2 kb/s
  272. Count of elements                        : 4636
  273. Stream size                              : 42.9 MiB (0%)
  274. Title                                    : 英文SDH
  275. Language                                 : English
  276. Default                                  : No
  277. Forced                                   : No
  278. Text #9
  279. ID                                       : 16
  280. Format                                   : PGS
  281. Muxing mode                              : zlib
  282. Codec ID                                 : S_HDMV/PGS
  283. Codec ID/Info                            : Picture based subtitle format used on BDs/HD-DVDs
  284. Duration                                 : 1 h 56 min
  285. Bit rate                                 : 65.3 kb/s
  286. Count of elements                        : 3896
  287. Stream size                              : 54.7 MiB (0%)
  288. Title                                    : 导评英文
  289. Language                                 : English
  290. Default                                  : No
  291. Forced                                   : No
  292. Menu
  293. 00:00:00.000                             : en:Chapter 1
  294. 00:03:22.327                             : en:Chapter 2
  295. 00:08:53.616                             : en:Chapter 3
  296. 00:09:36.784                             : en:Chapter 4
  297. 00:13:38.275                             : en:Chapter 5
  298. 00:15:44.735                             : en:Chapter 6
  299. 00:21:19.736                             : en:Chapter 7
  300. 00:23:28.281                             : en:Chapter 8
  301. 00:27:08.793                             : en:Chapter 9
  302. 00:28:59.571                             : en:Chapter 10
  303. 00:35:10.900                             : en:Chapter 11
  304. 00:39:07.845                             : en:Chapter 12
  305. 00:42:43.894                             : en:Chapter 13
  306. 00:43:42.411                             : en:Chapter 14
  307. 00:47:35.352                             : en:Chapter 15
  308. 00:48:53.888                             : en:Chapter 16
  309. 00:54:15.585                             : en:Chapter 17
  310. 00:56:16.038                             : en:Chapter 18
  311. 01:00:58.696                             : en:Chapter 19
  312. 01:02:01.884                             : en:Chapter 20
  313. 01:06:55.511                             : en:Chapter 21
  314. 01:09:18.237                             : en:Chapter 22
  315. 01:11:28.200                             : en:Chapter 23
  316. 01:12:37.686                             : en:Chapter 24
  317. 01:14:39.266                             : en:Chapter 25
  318. 01:18:00.967                             : en:Chapter 26
  319. 01:20:32.535                             : en:Chapter 27
  320. 01:25:01.929                             : en:Chapter 28
  321. 01:27:59.440                             : en:Chapter 29
  322. 01:31:53.924                             : en:Chapter 30
  323. 01:33:26.433                             : en:Chapter 31
  324. 01:36:25.237                             : en:Chapter 32
  325. 01:37:45.192                             : en:Chapter 33
  326. 01:43:56.896                             : en:Chapter 34
  327. 01:45:35.912                             : en:Chapter 35
  328. 01:47:30.902                             : en:Chapter 36





此处一般会放置磁力链或种子下载链接,不过此链接需要注册会员才能看到,点击“立即注册”
磁力链下载【下载链接仅对注册会员开放,登陆后可见】
BT9527电影天堂 1、BT9527电影天堂提供的BT文件均来源于互联网抓取,只供网友学习交流、技术提升使用。
2、我们遵守BitTorrent点对点协议原则,任何版权问题请联系原资源发布商,我们不处理任何版权纠纷,谢谢!如有争议请联系邮箱:BT9527#hotmail.com(#换成@)
3、如果您发现某页面或地址有错误,请联系站长邮箱BT9527#hotmail.com(#换成@),我们会尽快处理。您的热心是对BT9527电影天堂最大的支持。
4、本站建议去正规影院观看电影以支持电影行业发展。
最新回复 (0)

你可以在 登录 or 注册 后,对此帖发表评论!

返回
发新帖