超人总动员[国粤英多音轨/简繁英字幕].The.Incredibles.2004.BluRay.2160p.x265.10bit.HDR.5Audio-MiniHD 15.67GB

版主小s 21天前 32

✔资源类型:BD-4K   ✔电影年份:更 早   ✔电影地区:欧美   ✔电影分类:喜剧

◎译  名 超人总动员 / 超人特工队(港) / 超人特攻队(台) / 超人家族
◎片  名 The Incredibles
◎年  代 2004
◎产  地 美国
◎类  别 喜剧 / 动作 / 动画 / 冒险
◎语  言 英语 / 西班牙语 / 法语
◎上映日期 2005-01-28(中国大陆) / 2004-11-05(美国)
◎IMDb链接 https://www.imdb.com/title/tt0317705/
◎豆瓣评分 8.2/10 (278426人评价)
◎豆瓣链接 https://movie.douban.com/subject/1291577/
◎片  长 115分钟
◎导  演 布拉德·伯德 Brad Bird (id:1027204)
◎编  剧 布拉德·伯德 Brad Bird (id:1027204)
◎演  员 格雷格·T·尼尔森 Craig T. Nelson (id:1002721)
       霍利·亨特 Holly Hunter (id:1031838)
       塞缪尔·杰克逊 Samuel L. Jackson (id:1054408)
       杰森·李 Jason Lee (id:1044714)
       泰迪·牛顿 Teddy Newton (id:1293142)
       华莱士·肖恩 Wallace Shawn (id:1040504)
       蔡康永 Kevin Tsai (id:1273400)
       布拉德·伯德 Brad Bird (id:1027204)
       徐熙娣 Dee Hsu (id:1265136)
       陈佩斯 Peisi Chen (id:1280571)
       莎拉·沃威尔 Sarah Vowell (id:1186797)
       Spencer Fox Spencer Fox (id:1187854)
       姜文 Wen Jiang (id:1021999)
       宫迫博之 Hiroyuki Miyasako (id:1001269)
       徐帆 Fan Xu (id:1017207)
       斯蒂芬·沙弗 Stephen Schaffer (id:1296820)
       Dmitry Pomirchy Dmitry Pomirchy (id:1173428)
        Ricardo Gray (id:1249508)
       马克?安德鲁斯 Mark Andrews (id:1277254)
       巴德·乐凯 Bud Luckey (id:1290427)
       鲍勃·彼德森 Bob Peterson (id:1294383)
       彼得·孙 Peter Sohn (id:1298008)
       泰德·马托特 Ted Mathot (id:1303097)
       Katherine Sarafian Katherine Sarafian (id:1330392)
       迈克·吉亚奇诺 Michael Giacchino (id:1027937)
       安德鲁·吉梅内斯 Andrew Jimenez (id:1305449)
       斯蒂芬·沙弗 Stephen Schaffer (id:1296820)
       Kevin Reher Kevin Reher (id:1295391)
       Jen Rudin Jen Rudin (id:1308448)
       Matthew Jon Beck Matthew Jon Beck (id:1302105)
       Aaron Sadovsky Aaron Sadovsky (id:1006620)
       Nigel Hardwidge Nigel Hardwidge (id:1286029)
       Gary Bruins Gary Bruins (id:1311053)
       Martin Nguyen Martin Nguyen (id:1310200)
       Erdem Taylan Erdem Taylan (id:1308119)
       安德鲁·吉梅内斯 Andrew Jimenez (id:1305449)
       基斯·丹尼尔·克隆 Keith Daniel Klohn (id:1303967)
       William Austin Lee William Austin Lee (id:1308955)
       里克·塞尔 Rick Sayre (id:1296803)
       大卫·理查德·尼尔森 David Richard Nelson (id:1311235)
       卡洛斯·巴埃纳 Carlos Baena (id:1304143)
       史蒂文·克雷·亨特 Steven Clay Hunter (id:1438657)

◎简  介
  鲍勃是一个超人特工,他惩恶扬善,深受街坊邻里的爱戴。“不可思议”先生就是他的光荣外号。他和另一个超人特工“弹力女超人”相爱,两人结婚后过上平静的生活。                                    
                                15年过去了,鲍勃已经像普通人一样生活,当上了保险公司的理赔员。然而他心中还是有着技痒之时。当他知道有发明家要展开攻击超人特工队、毁灭人类的计划,鲍勃终于按捺不住了。他要重出江湖,挽救人类护卫地球。但中年的超人已经大腹便便,他和敌人的斗争充满了悬念。鲍勃的妻子也跟丈夫一起投入到这场艰巨的战争中。

◎获奖情况 (共23项)
  第77届奥斯卡金像奖 (2005)
  最佳原创剧本(提名)
   └──布拉德·伯德 (id:1027204)
  最佳动画长片
   └──布拉德·伯德 (id:1027204)
  最佳混音(提名)
  最佳音效剪辑

  第62届金球奖 (2005)
  电影类 最佳音乐/喜剧片(提名)

  第32届动画安妮奖 (2005)
  最佳动画长片
  最佳导演
   └──布拉德·伯德 (id:1027204)
  最佳编剧
   └──布拉德·伯德 (id:1027204)
  最佳配音
   └──布拉德·伯德 (id:1027204)
  最佳配音(提名)
   └──塞缪尔·杰克逊 (id:1054408)
  最佳配乐
   └──迈克·吉亚奇诺 (id:1027937)
  最佳配乐(提名)
   └──迈克·吉亚奇诺 (id:1027937)
  最佳分镜
   └──凯文·奥布莱恩 (id:1293369)
  最佳分镜(提名)
   └──泰德·马托特 (id:1303097)
  最佳艺术指导
   └──卢·罗曼诺 (id:1000301)
  最佳动画角色
   └──安格斯·麦克莱恩 (id:1290663)
  最佳动画角色(提名)
  最佳角色设计
   └──托尼·弗希勒 (id:1284287)
  最佳角色设计(提名)
   └──泰迪·牛顿 (id:1293142)
  最佳动画效果
   └──Martin Nguyen (id:1310200)

  第14届MTV电影奖 (2005)
  MTV电影奖 年度电影(提名)
  MTV电影奖 最佳银幕组合(提名)

  第5届美国电影学会奖 (2004)
  年度佳片

  1. ##### MediaInfo ######
  2. General
  3. Unique ID                                : 132659828239579682741238067737182120162 (0x63CD5A83108AF6010155A773D0ECA8E2)
  4. Complete name                            : The.Incredibles.2004.BluRay.2160p.x265.10bit.HDR.5Audio-MiniHD.mkv
  5. Format                                   : Matroska
  6. Format version                           : Version 4
  7. File size                                : 15.7 GiB
  8. Duration                                 : 1 h 55 min
  9. Overall bit rate mode                    : Variable
  10. Overall bit rate                         : 19.4 Mb/s
  11. Encoded date                             : UTC 2018-07-13 11:13:49
  12. Writing application                      : mkvmerge v20.0.0 ('I Am The Sun') 32-bit
  13. Writing library                          : libebml v1.3.5 + libmatroska v1.4.8
  14. Video
  15. ID                                       : 1
  16. Format                                   : HEVC
  17. Format/Info                              : High Efficiency Video Coding
  18. Format profile                           : Main 10@L5.1@High
  19. HDR format                               : SMPTE ST 2086, HDR10 compatible
  20. Codec ID                                 : V_MPEGH/ISO/HEVC
  21. Duration                                 : 1 h 55 min
  22. Bit rate                                 : 9 374 kb/s
  23. Width                                    : 3 840 pixels
  24. Height                                   : 1 604 pixels
  25. Display aspect ratio                     : 2.40:1
  26. Frame rate mode                          : Constant
  27. Frame rate                               : 23.976 (24000/1001/53354) FPS
  28. Color space                              : YUV
  29. Chroma subsampling                       : 4:2:0
  30. Bit depth                                : 10 bits
  31. Bits/(Pixel*Frame)                       : 0.063
  32. Stream size                              : 7.55 GiB (48%)
  33. Writing library                          : x265 2.8+1-478bfe2b7673:[Windows][GCC 7.3.0][64 bit] 10bit
  34. Encoding settings                        : cpuid=533541111039 / frame-threads=8 / numa-pools=32,32 / wpp / no-pmode / no-pme / no-psnr / no-ssim / log-level=2 / input-csp=1 / input-res=3840x1604 / interlace=0 / total-frames=0 / level-idc=51 / high-tier=1 / uhd-bd=0 / ref=5 / no-allow-non-conformance / repeat-headers / annexb / aud / hrd / info / hash=0 / no-temporal-layers / no-open-gop / min-keyint=23 / keyint=300 / gop-lookahead=0 / bframes=10 / b-adapt=2 / b-pyramid / bframe-bias=0 / rc-lookahead=40 / lookahead-slices=4 / NTMzNTQ=uuDQuD2mJt9fsCf / scenecut=40 / radl=0 / no-intra-refresh / ctu=32 / min-cu-size=8 / no-rect / no-amp / max-tu-size=32 / tu-inter-depth=2 / tu-intra-depth=2 / limit-tu=4 / rdoq-level=1 / dynamic-rd=0.00 / no-ssim-rd / signhide / no-tskip / nr-intra=0 / nr-inter=0 / no-constrained-intra / no-strong-intra-smoothing / max-merge=3 / limit-refs=2 / limit-modes / me=3 / subme=4 / merange=25 / temporal-mvp / weightp / weightb / no-analyze-src-pics / deblock=-1:-1 / no-sao / no-sao-non-deblock / rd=4 / no-early-skip / no-rskip / no-fast-intra / no-tskip-fast / no-cu-lossless / b-intra / no-splitrd-skip / rdpenalty=1 / psy-rd=2.00 / psy-rdoq=5.00 / no-rd-refine / no-lossless / cbqpoffs=-3 / crqpoffs=-3 / rc=crf / crf=17.0 / qcomp=0.65 / qpstep=4 / stats-write=0 / stats-read=0 / vbv-maxrate=120000 / vbv-bufsize=120000 / vbv-init=0.9 / crf-max=0.0 / crf-min=0.0 / ipratio=1.40 / pbratio=1.20 / aq-mode=3 / aq-strength=0.90 / cutree / zone-count=0 / no-strict-cbr / qg-size=32 / no-rc-grain / qpmax=69 / qpmin=0 / no-const-vbv / sar=1 / overscan=0 / videoformat=5 / range=0 / colorprim=9 / transfer=16 / colormatrix=9 / chromaloc=0 / display-window=0 / master-display=G(8500,39850)B(6550,2300)R(35400,14600)WP(15635,16450)L(10000000,1) / max-cll=0,0 / min-luma=0 / max-luma=1023 / log2-max-poc-lsb=8 / vui-timing-info / vui-hrd-info / slices=1 / no-opt-qp-pps / no-opt-ref-list-length-pps / no-multi-pass-opt-rps / scenecut-bias=0.05 / no-opt-cu-delta-qp / no-aq-motion / hdr / hdr-opt / no-dhdr10-opt / no-idr-recovery-sei / analysis-reuse-level=5 / scale-factor=0 / refine-intra=0 / refine-inter=0 / refine-mv=0 / no-limit-sao / ctu-info=0 / no-lowpass-dct / refine-mv-type=0 / copy-pic=1 / max-ausize-factor=1.0 / no-dynamic-refine / no-single-sei
  35. Default                                  : Yes
  36. Forced                                   : No
  37. Color range                              : Limited
  38. Color primaries                          : BT.2020
  39. Transfer characteristics                 : PQ
  40. Matrix coefficients                      : BT.2020 non-constant
  41. Mastering display color primaries        : BT.2020
  42. Mastering display luminance              : min: 0.0001 cd/m2, max: 1000 cd/m2
  43. Audio #1
  44. ID                                       : 2
  45. Format                                   : MLP FBA 16-ch
  46. Format/Info                              : Meridian Lossless Packing FBA with 16-channel presentation
  47. Commercial name                          : Dolby TrueHD with Dolby Atmos
  48. Codec ID                                 : A_TRUEHD
  49. Duration                                 : 1 h 55 min
  50. Bit rate mode                            : Variable
  51. Bit rate                                 : 7 354 kb/s
  52. Maximum bit rate                         : 7 071 kb/s
  53. Channel(s)                               : 8 channels
  54. Channel layout                           : L R C LFE Ls Rs Lb Rb
  55. Sampling rate                            : 48.0 kHz
  56. Frame rate                               : 1 200.000 FPS (40 SPF)
  57. Compression mode                         : Lossless
  58. Delay relative to video                  : 32 ms
  59. Stream size                              : 5.92 GiB (38%)
  60. Title                                    : 英语全景声
  61. Language                                 : English
  62. Default                                  : Yes
  63. Forced                                   : No
  64. Number of dynamic objects                : 13
  65. Bed channel count                        : 1 channel
  66. Bed channel configuration                : LFE
  67. Audio #2
  68. ID                                       : 3
  69. Format                                   : AC-3
  70. Format/Info                              : Audio Coding 3
  71. Commercial name                          : Dolby Digital
  72. Codec ID                                 : A_AC3
  73. Duration                                 : 1 h 55 min
  74. Bit rate mode                            : Constant
  75. Bit rate                                 : 640 kb/s
  76. Channel(s)                               : 6 channels
  77. Channel layout                           : L R C LFE Ls Rs
  78. Sampling rate                            : 48.0 kHz
  79. Frame rate                               : 31.250 FPS (1536 SPF)
  80. Compression mode                         : Lossy
  81. Delay relative to video                  : 31 ms
  82. Stream size                              : 528 MiB (3%)
  83. Title                                    : 英语
  84. Language                                 : English
  85. Service kind                             : Complete Main
  86. Default                                  : No
  87. Forced                                   : No
  88. Audio #3
  89. ID                                       : 4
  90. Format                                   : AC-3
  91. Format/Info                              : Audio Coding 3
  92. Commercial name                          : Dolby Digital
  93. Codec ID                                 : A_AC3
  94. Duration                                 : 1 h 55 min
  95. Bit rate mode                            : Constant
  96. Bit rate                                 : 640 kb/s
  97. Channel(s)                               : 6 channels
  98. Channel layout                           : L R C LFE Ls Rs
  99. Sampling rate                            : 48.0 kHz
  100. Frame rate                               : 31.250 FPS (1536 SPF)
  101. Compression mode                         : Lossy
  102. Delay relative to video                  : 930 ms
  103. Stream size                              : 528 MiB (3%)
  104. Title                                    : 国语
  105. Language                                 : Chinese
  106. Service kind                             : Complete Main
  107. Default                                  : No
  108. Forced                                   : No
  109. Audio #4
  110. ID                                       : 5
  111. Format                                   : AC-3
  112. Format/Info                              : Audio Coding 3
  113. Commercial name                          : Dolby Digital
  114. Codec ID                                 : A_AC3
  115. Duration                                 : 1 h 55 min
  116. Bit rate mode                            : Constant
  117. Bit rate                                 : 640 kb/s
  118. Channel(s)                               : 6 channels
  119. Channel layout                           : L R C LFE Ls Rs
  120. Sampling rate                            : 48.0 kHz
  121. Frame rate                               : 31.250 FPS (1536 SPF)
  122. Compression mode                         : Lossy
  123. Delay relative to video                  : 930 ms
  124. Stream size                              : 528 MiB (3%)
  125. Title                                    : 台配国语
  126. Language                                 : Chinese
  127. Service kind                             : Complete Main
  128. Default                                  : No
  129. Forced                                   : No
  130. Audio #5
  131. ID                                       : 6
  132. Format                                   : AC-3
  133. Format/Info                              : Audio Coding 3
  134. Commercial name                          : Dolby Digital
  135. Codec ID                                 : A_AC3
  136. Duration                                 : 1 h 55 min
  137. Bit rate mode                            : Constant
  138. Bit rate                                 : 640 kb/s
  139. Channel(s)                               : 6 channels
  140. Channel layout                           : L R C LFE Ls Rs
  141. Sampling rate                            : 48.0 kHz
  142. Frame rate                               : 31.250 FPS (1536 SPF)
  143. Compression mode                         : Lossy
  144. Delay relative to video                  : 930 ms
  145. Stream size                              : 528 MiB (3%)
  146. Title                                    : 粤语
  147. Language                                 : Chinese
  148. Service kind                             : Complete Main
  149. Default                                  : No
  150. Forced                                   : No
  151. Text #1
  152. ID                                       : 7
  153. Format                                   : PGS
  154. Muxing mode                              : zlib
  155. Codec ID                                 : S_HDMV/PGS
  156. Codec ID/Info                            : Picture based subtitle format used on BDs/HD-DVDs
  157. Duration                                 : 1 h 49 min
  158. Bit rate                                 : 39.0 kb/s
  159. Count of elements                        : 2668
  160. Stream size                              : 30.7 MiB (0%)
  161. Title                                    : 英文
  162. Language                                 : English
  163. Default                                  : Yes
  164. Forced                                   : No
  165. Text #2
  166. ID                                       : 8
  167. Format                                   : PGS
  168. Muxing mode                              : zlib
  169. Codec ID                                 : S_HDMV/PGS
  170. Codec ID/Info                            : Picture based subtitle format used on BDs/HD-DVDs
  171. Duration                                 : 1 h 47 min
  172. Bit rate                                 : 43.5 kb/s
  173. Count of elements                        : 2426
  174. Stream size                              : 33.4 MiB (0%)
  175. Title                                    : 国配简体
  176. Language                                 : Chinese
  177. Default                                  : No
  178. Forced                                   : No
  179. Text #3
  180. ID                                       : 9
  181. Format                                   : PGS
  182. Muxing mode                              : zlib
  183. Codec ID                                 : S_HDMV/PGS
  184. Codec ID/Info                            : Picture based subtitle format used on BDs/HD-DVDs
  185. Duration                                 : 1 h 47 min
  186. Bit rate                                 : 44.0 kb/s
  187. Count of elements                        : 2426
  188. Stream size                              : 33.9 MiB (0%)
  189. Title                                    : 国配繁体
  190. Language                                 : Chinese
  191. Default                                  : No
  192. Forced                                   : No
  193. Text #4
  194. ID                                       : 10
  195. Format                                   : PGS
  196. Muxing mode                              : zlib
  197. Codec ID                                 : S_HDMV/PGS
  198. Codec ID/Info                            : Picture based subtitle format used on BDs/HD-DVDs
  199. Duration                                 : 1 h 47 min
  200. Bit rate                                 : 48.5 kb/s
  201. Count of elements                        : 2718
  202. Stream size                              : 37.2 MiB (0%)
  203. Title                                    : 台配简体
  204. Language                                 : Chinese
  205. Default                                  : No
  206. Forced                                   : No
  207. Text #5
  208. ID                                       : 11
  209. Format                                   : PGS
  210. Muxing mode                              : zlib
  211. Codec ID                                 : S_HDMV/PGS
  212. Codec ID/Info                            : Picture based subtitle format used on BDs/HD-DVDs
  213. Duration                                 : 1 h 47 min
  214. Bit rate                                 : 49.0 kb/s
  215. Count of elements                        : 2718
  216. Stream size                              : 37.5 MiB (0%)
  217. Title                                    : 台配繁体
  218. Language                                 : Chinese
  219. Default                                  : No
  220. Forced                                   : No
  221. Menu
  222. 00:00:00.000                             : en:Chapter 1
  223. 00:09:15.388                             : en:Chapter 2
  224. 00:11:33.567                             : en:Chapter 3
  225. 00:13:32.186                             : en:Chapter 4
  226. 00:17:09.361                             : en:Chapter 5
  227. 00:20:45.744                             : en:Chapter 6
  228. 00:26:54.362                             : en:Chapter 7
  229. 00:30:43.049                             : en:Chapter 8
  230. 00:34:55.426                             : en:Chapter 9
  231. 00:41:28.068                             : en:Chapter 10
  232. 00:46:02.509                             : en:Chapter 11
  233. 00:48:55.348                             : en:Chapter 12
  234. 00:50:02.958                             : en:Chapter 13
  235. 00:54:02.614                             : en:Chapter 14
  236. 00:57:10.385                             : en:Chapter 15
  237. 01:00:36.632                             : en:Chapter 16
  238. 01:05:05.693                             : en:Chapter 17
  239. 01:10:54.541                             : en:Chapter 18
  240. 01:12:58.749                             : en:Chapter 19
  241. 01:16:28.416                             : en:Chapter 20
  242. 01:19:20.046                             : en:Chapter 21
  243. 01:21:14.744                             : en:Chapter 22
  244. 01:24:00.493                             : en:Chapter 23
  245. 01:27:06.471                             : en:Chapter 24
  246. 01:30:30.675                             : en:Chapter 25
  247. 01:32:48.229                             : en:Chapter 26
  248. 01:33:33.858                             : en:Chapter 27
  249. 01:34:31.373                             : en:Chapter 28
  250. 01:37:03.984                             : en:Chapter 29
  251. 01:41:58.904                             : en:Chapter 30
  252. 01:45:40.834                             : en:Chapter 31
  253. 01:47:34.155                             : en:Chapter 32





此处一般会放置磁力链或种子下载链接,不过此链接需要注册会员才能看到,点击“立即注册”
磁力链下载【下载链接仅对注册会员开放,登陆后可见】
BT9527电影天堂 1、BT9527电影天堂提供的BT文件均来源于互联网抓取,只供网友学习交流、技术提升使用。
2、我们遵守BitTorrent点对点协议原则,任何版权问题请联系原资源发布商,我们不处理任何版权纠纷,谢谢!如有争议请联系邮箱:BT9527#hotmail.com(#换成@)
3、如果您发现某页面或地址有错误,请联系站长邮箱BT9527#hotmail.com(#换成@),我们会尽快处理。您的热心是对BT9527电影天堂最大的支持。
4、本站建议去正规影院观看电影以支持电影行业发展。
最新回复 (0)

你可以在 登录 or 注册 后,对此帖发表评论!

返回
发新帖