西北偏北[国英多音轨/中英字幕].North.by.Northwest.1959.BluRay.1080p.x265.10bit.3Audio-MiniHD 8.89GB

版主小s 18天前 21

✔资源类型:暂未分类   ✔电影年份:更 早   ✔电影地区:欧美   ✔电影分类:悬疑

◎译  名 西北偏北 / 夺魄惊魂(港) / 北西北(台) / 谍影疑云 / 北偏北
◎片  名 North by Northwest
◎年  代 1959
◎产  地 美国
◎类  别 悬疑 / 惊悚 / 冒险
◎语  言 英语 / 法语
◎上映日期 1959-07-17(美国)
◎IMDb链接 https://www.imdb.com/title/tt0053125/
◎豆瓣评分 8.3/10 (94058人评价)
◎豆瓣链接 https://movie.douban.com/subject/1295872/
◎片  长 136分钟
◎导  演 阿尔弗雷德·希区柯克 Alfred Hitchcock (id:1025185)
◎编  剧 恩斯特·莱赫曼 Ernest Lehman (id:1037077)
◎演  员 加里·格兰特 Cary Grant (id:1053563)
       爱娃·玛丽·森特 Eva Marie Saint (id:1010652)
       詹姆斯·梅森 James Mason (id:1048155)
       洁茜·罗伊丝·兰迪斯 Jessie Royce Landis (id:1036689)
       里奥.G.卡罗尔 Leo G. Carroll (id:1055079)
       约瑟芬·哈钦森 Josephine Hutchinson (id:1111419)
       菲利普·奥伯 Philip Ober (id:1131262)
       马丁·兰道 Martin Landau (id:1019057)
       亚当·威廉姆斯 Adam Williams (id:1163832)
       爱德华·普拉特 Edward Platt (id:1007072)
       罗伯特·艾伦斯坦 Robert Ellenstein (id:1081749)
       莱斯·崔梅恩 Les Tremayne (id:1002877)
       菲利普·柯立芝 Philip Coolidge (id:1076654)
       帕特里克·麦克维 Patrick McVey (id:1117447)
       爱德华·宾斯 Edward Binns (id:1066678)
       肯·林奇 Ken Lynch (id:1120709)
       马尔科姆·阿特伯里 Malcolm Atterbury (id:1058930)
       多琳郎 Doreen Lang (id:1108315)
       毛拉·麦吉维尼 Maura McGiveney (id:1116689)
       莎莉·弗雷泽 Sally Fraser (id:1086488)
       伯纳德·荷曼 Bernard Herrmann (id:1012539)
       乔治·托马西尼 George Tomasini (id:1001683)
       史丹利·史密斯 Stanley Smith (id:1297943)
       马修·尤里奇 Matthew Yuricich (id:1301579)

◎简  介
  罗杰(加里·格兰特 Cary Grant 饰)是个平凡的广告商人,最近却莫名其妙的惹了一身的麻烦——他被别人错认成一名叫“凯普林”的人,还被人灌醉放进车中,意图造成车毁人亡,命大的罗杰却顺利逃过这一劫。这个离奇的经历让罗杰又后怕又好奇,为了证明自己的清白,他非要找出真正的 “凯普林”不可。                                    
                                噩运在纠缠罗杰。他一路设法摆脱追杀,一边千里追踪凯普林的线索。他跳上了一趟开往芝加哥的列车,车上巧遇娇娃坎多(爱娃·玛丽·森特 Eva Marie Saint 饰),愿意助他一臂之力。眼看就快可以约见凯普林,事情却又起了波澜——他不但没有见到凯普林,还随之陷入了又一场危机当中。真相越来越扑朔迷离,拉什莫山的总统雕像,也成了一场生死搏斗的大舞台。

◎获奖情况 (共3项)
  第32届奥斯卡金像奖 (1960)
  最佳原创剧本(提名)
   └──恩斯特·莱赫曼 (id:1037077)
  最佳剪辑(提名)
   └──乔治·托马西尼 (id:1001683)
  彩色片最佳艺术指导和布景(提名)

  1. ##### MediaInfo ######
  2. General
  3. Unique ID                                : 188749137626602819439863895298946968789 (0x8DFFC2F915BD0B5C8A886467F1392CD5)
  4. Complete name                            : North.by.Northwest.1959.BluRay.1080p.x265.10bit.3Audio-MiniHD.mkv
  5. Format                                   : Matroska
  6. Format version                           : Version 4
  7. File size                                : 8.89 GiB
  8. Duration                                 : 2 h 17 min
  9. Overall bit rate                         : 9 270 kb/s
  10. Encoded date                             : UTC 2017-07-03 12:54:39
  11. Writing application                      : mkvmerge v11.0.0 ('Alive') 64bit
  12. Writing library                          : libebml v1.3.4 + libmatroska v1.4.5
  13. Attachments                              : 华文楷体.TTF / Cronos Pro Light Subhead.otf / Cronos Pro Subhead.otf
  14. Video
  15. ID                                       : 1
  16. Format                                   : HEVC
  17. Format/Info                              : High Efficiency Video Coding
  18. Codec ID                                 : V_MPEGH/ISO/HEVC
  19. Duration                                 : 2 h 16 min
  20. Bit rate                                 : 7 542 kb/s
  21. Width                                    : 1 920 pixels
  22. Height                                   : 1 080 pixels
  23. Display aspect ratio                     : 16:9
  24. Frame rate mode                          : Constant
  25. Frame rate                               : 23.976 (24000/1001/53354) FPS
  26. Bits/(Pixel*Frame)                       : 0.152
  27. Stream size                              : 7.19 GiB (81%)
  28. Default                                  : Yes
  29. Forced                                   : No
  30. Audio #1
  31. ID                                       : 2
  32. Format                                   : AC-3
  33. Format/Info                              : Audio Coding 3
  34. Commercial name                          : Dolby Digital
  35. Codec ID                                 : A_AC3
  36. Duration                                 : 2 h 16 min
  37. Bit rate mode                            : Constant
  38. Bit rate                                 : 640 kb/s
  39. Channel(s)                               : 6 channels
  40. Channel layout                           : L R C LFE Ls Rs
  41. Sampling rate                            : 48.0 kHz
  42. Frame rate                               : 31.250 FPS (1536 SPF)
  43. Compression mode                         : Lossy
  44. Stream size                              : 625 MiB (7%)
  45. Language                                 : English
  46. Service kind                             : Complete Main
  47. Default                                  : Yes
  48. Forced                                   : No
  49. Audio #2
  50. ID                                       : 3
  51. Format                                   : AC-3
  52. Format/Info                              : Audio Coding 3
  53. Commercial name                          : Dolby Digital
  54. Codec ID                                 : A_AC3
  55. Duration                                 : 2 h 16 min
  56. Bit rate mode                            : Constant
  57. Bit rate                                 : 640 kb/s
  58. Channel(s)                               : 6 channels
  59. Channel layout                           : L R C LFE Ls Rs
  60. Sampling rate                            : 48.0 kHz
  61. Frame rate                               : 31.250 FPS (1536 SPF)
  62. Compression mode                         : Lossy
  63. Stream size                              : 625 MiB (7%)
  64. Language                                 : Chinese
  65. Service kind                             : Complete Main
  66. Default                                  : No
  67. Forced                                   : No
  68. Audio #3
  69. ID                                       : 4
  70. Format                                   : AC-3
  71. Format/Info                              : Audio Coding 3
  72. Commercial name                          : Dolby Digital
  73. Codec ID                                 : A_AC3
  74. Duration                                 : 2 h 16 min
  75. Bit rate mode                            : Constant
  76. Bit rate                                 : 384 kb/s
  77. Channel(s)                               : 6 channels
  78. Channel layout                           : L R C LFE Ls Rs
  79. Sampling rate                            : 48.0 kHz
  80. Frame rate                               : 31.250 FPS (1536 SPF)
  81. Compression mode                         : Lossy
  82. Stream size                              : 375 MiB (4%)
  83. Language                                 : Chinese
  84. Service kind                             : Complete Main
  85. Default                                  : No
  86. Forced                                   : No
  87. Text #1
  88. ID                                       : 5
  89. Format                                   : PGS
  90. Muxing mode                              : zlib
  91. Codec ID                                 : S_HDMV/PGS
  92. Codec ID/Info                            : Picture based subtitle format used on BDs/HD-DVDs
  93. Duration                                 : 2 h 14 min
  94. Bit rate                                 : 15.0 kb/s
  95. Count of elements                        : 3168
  96. Stream size                              : 14.4 MiB (0%)
  97. Language                                 : English
  98. Default                                  : Yes
  99. Forced                                   : No
  100. Text #2
  101. ID                                       : 6
  102. Format                                   : PGS
  103. Muxing mode                              : zlib
  104. Codec ID                                 : S_HDMV/PGS
  105. Codec ID/Info                            : Picture based subtitle format used on BDs/HD-DVDs
  106. Duration                                 : 2 h 17 min
  107. Bit rate                                 : 18.1 kb/s
  108. Count of elements                        : 3410
  109. Stream size                              : 17.7 MiB (0%)
  110. Language                                 : Chinese
  111. Default                                  : No
  112. Forced                                   : No
  113. Text #3
  114. ID                                       : 7
  115. Format                                   : PGS
  116. Muxing mode                              : zlib
  117. Codec ID                                 : S_HDMV/PGS
  118. Codec ID/Info                            : Picture based subtitle format used on BDs/HD-DVDs
  119. Duration                                 : 2 h 17 min
  120. Bit rate                                 : 18.8 kb/s
  121. Count of elements                        : 3410
  122. Stream size                              : 18.5 MiB (0%)
  123. Language                                 : Chinese
  124. Default                                  : No
  125. Forced                                   : No
  126. Text #4
  127. ID                                       : 8
  128. Format                                   : PGS
  129. Muxing mode                              : zlib
  130. Codec ID                                 : S_HDMV/PGS
  131. Codec ID/Info                            : Picture based subtitle format used on BDs/HD-DVDs
  132. Duration                                 : 2 h 17 min
  133. Bit rate                                 : 28.9 kb/s
  134. Count of elements                        : 3410
  135. Stream size                              : 28.4 MiB (0%)
  136. Language                                 : Chinese
  137. Default                                  : No
  138. Forced                                   : No
  139. Text #5
  140. ID                                       : 9
  141. Format                                   : PGS
  142. Muxing mode                              : zlib
  143. Codec ID                                 : S_HDMV/PGS
  144. Codec ID/Info                            : Picture based subtitle format used on BDs/HD-DVDs
  145. Duration                                 : 2 h 17 min
  146. Bit rate                                 : 29.5 kb/s
  147. Count of elements                        : 3410
  148. Stream size                              : 28.9 MiB (0%)
  149. Language                                 : Chinese
  150. Default                                  : No
  151. Forced                                   : No
  152. Menu
  153. 00:00:00.000                             : en:Chapter 01
  154. 00:02:15.593                             : en:Chapter 02
  155. 00:04:37.944                             : en:Chapter 03
  156. 00:07:12.390                             : en:Chapter 04
  157. 00:11:17.927                             : en:Chapter 05
  158. 00:14:26.448                             : en:Chapter 06
  159. 00:17:53.197                             : en:Chapter 07
  160. 00:22:47.532                             : en:Chapter 08
  161. 00:26:44.394                             : en:Chapter 09
  162. 00:29:37.817                             : en:Chapter 10
  163. 00:32:23.441                             : en:Chapter 11
  164. 00:34:47.835                             : en:Chapter 12
  165. 00:36:45.828                             : en:Chapter 13
  166. 00:38:29.390                             : en:Chapter 14
  167. 00:41:29.570                             : en:Chapter 15
  168. 00:44:11.899                             : en:Chapter 16
  169. 00:46:24.072                             : en:Chapter 17
  170. 00:51:24.873                             : en:Chapter 18
  171. 00:54:54.374                             : en:Chapter 19
  172. 00:57:38.913                             : en:Chapter 20
  173. 01:00:17.864                             : en:Chapter 21
  174. 01:02:52.935                             : en:Chapter 22
  175. 01:06:10.549                             : en:Chapter 23
  176. 01:09:06.767                             : en:Chapter 24
  177. 01:11:40.963                             : en:Chapter 25
  178. 01:14:23.542                             : en:Chapter 26
  179. 01:15:39.952                             : en:Chapter 27
  180. 01:19:01.820                             : en:Chapter 28
  181. 01:23:13.988                             : en:Chapter 29
  182. 01:25:25.620                             : en:Chapter 30
  183. 01:28:08.199                             : en:Chapter 31
  184. 01:29:53.805                             : en:Chapter 32
  185. 01:33:57.048                             : en:Chapter 33
  186. 01:35:58.335                             : en:Chapter 34
  187. 01:40:37.281                             : en:Chapter 35
  188. 01:45:52.429                             : en:Chapter 36
  189. 01:51:30.350                             : en:Chapter 37
  190. 01:55:07.150                             : en:Chapter 38
  191. 01:58:23.846                             : en:Chapter 39
  192. 02:02:21.751                             : en:Chapter 40
  193. 02:06:58.027                             : en:Chapter 41
  194. 02:08:48.637                             : en:Chapter 42
  195. 02:10:28.570                             : en:Chapter 43
  196. 02:11:53.739                             : en:Chapter 44
  197. 02:14:32.230                             : en:Chapter 45
  198. 02:15:39.589                             : en:Chapter 46
  199. 02:16:23.466                             : en:Chapter 47





此处一般会放置磁力链或种子下载链接,不过此链接需要注册会员才能看到,点击“立即注册”
磁力链下载【下载链接仅对注册会员开放,登陆后可见】
BT9527电影天堂 1、BT9527电影天堂提供的BT文件均来源于互联网抓取,只供网友学习交流、技术提升使用。
2、我们遵守BitTorrent点对点协议原则,任何版权问题请联系原资源发布商,我们不处理任何版权纠纷,谢谢!如有争议请联系邮箱:BT9527#hotmail.com(#换成@)
3、如果您发现某页面或地址有错误,请联系站长邮箱BT9527#hotmail.com(#换成@),我们会尽快处理。您的热心是对BT9527电影天堂最大的支持。
4、本站建议去正规影院观看电影以支持电影行业发展。
最新回复 (0)

你可以在 登录 or 注册 后,对此帖发表评论!

返回
发新帖