记忆碎片[国英多音轨/简繁英特效字幕].Memento.2000.BluRay.1080p.x265.10bit.2Audio-MiniHD 5.89GB

版主小s 17天前 26

✔资源类型:暂未分类   ✔电影年份:更 早   ✔电影地区:欧美   ✔电影分类:剧情

◎译  名 记忆碎片 / 凶心人(港) / 记忆拼图(台) / 记忆迷局 / 失忆 / Amnesia
◎片  名 Memento
◎年  代 2000
◎产  地 美国
◎类  别 剧情 / 悬疑 / 惊悚 / 犯罪
◎语  言 英语
◎上映日期 2000-09-05(威尼斯电影节) / 2000-10-20(英国) / 2001-05-25(美国)
◎IMDb链接 https://www.imdb.com/title/tt0209144/
◎豆瓣评分 8.7/10 (557414人评价)
◎豆瓣链接 https://movie.douban.com/subject/1304447/
◎片  长 113分钟
◎导  演 克里斯托弗·诺兰 Christopher Nolan (id:1054524)
◎编  剧 克里斯托弗·诺兰 Christopher Nolan (id:1054524)
       乔纳森·诺兰 Jonathan Nolan (id:1275104)
◎演  员 盖·皮尔斯 Guy Pearce (id:1035672)
       凯瑞-安·莫斯 Carrie-Anne Moss (id:1022581)
       乔·潘托里亚诺 Joe Pantoliano (id:1049557)
       小马克·布恩 Mark Boone Junior (id:1032104)
       拉什·费加 Russ Fega (id:1366207)
       乔雅·福克斯 Jorja Fox (id:1009327)
       斯蒂芬·托布罗斯基 Stephen Tobolowsky (id:1019062)
       哈里特·桑塞姆·哈里斯 Harriet Sansom Harris (id:1100150)
       托马斯·列农 Thomas Lennon (id:1025213)
       考乐姆·吉斯·雷尼 Callum Keith Rennie (id:1049641)
       金伯利·坎贝尔 Kimberly Campbell (id:1366208)
       玛丽安妮·穆勒雷尔 Marianne Muellerleile (id:1132232)
       拉里·霍尔登 Larry Holden (id:1045227)
       亚伦·莱德 Aaron Ryder (id:1369601)
       苏珊妮·托德 Suzanne Todd (id:1299336)
       珍妮弗·托德 Jennifer Todd (id:1299329)
       艾玛·托马斯 Emma Thomas (id:1299145)
       大卫·朱莱安 David Julyan (id:1388516)
       沃利·菲斯特 Wally Pfister (id:1009551)
       约翰·帕帕席德拉 John Papsidera (id:1293922)
       佩蒂·波德斯塔 Patti Podesta (id:1276456)
       丹妮尔·伯曼 Danielle Berman (id:1278470)
       辛迪·埃文斯 Cindy Evans (id:1427039)

◎简  介
  当记忆支离破碎后,你该怎样面对生活?本片的主人公就遭遇了这样的事情。                                    
                                莱纳?谢尔比(盖伊?皮尔斯 饰)在家遭到歹徒的袭击,妻子被残忍的奸杀,自己脑部也受到严重的伤害。                                    
                                醒来后,他发现自己患了罕见的“短期记忆丧失症”,他只能记住十几分钟前发生的事情,为了让生活继续下去,更为了替惨死的妻子报仇,他凭借纹身、纸条、宝丽来快照等零碎的小东西,保存记忆,收集线索,展开了艰难的调查。                                    
                                调查中,莱纳遇上粗俗的酒吧女招待娜塔莉娅(凯瑞?安妮?莫斯 饰),她似乎知道一些莱昂纳多感兴趣的事;还有泰迪(乔?潘托利亚诺 饰),自称是他以前好朋友,但看上去鬼鬼祟祟的,不怀好意。到底谁能相信?娜塔莉娅?泰迪?还是他自己?                                    
                                抽丝剥茧之后,真相呼之欲出,简单之至却又残酷无比,而莱纳是否有面对这一切的勇气?

◎获奖情况 (共4项)
  第74届奥斯卡金像奖 (2002)
  最佳原创剧本(提名)
  最佳剪辑(提名)
   └──多迪·道恩 (id:1002946)

  第59届金球奖 (2002)
  电影类 最佳编剧(提名)
   └──克里斯托弗·诺兰 (id:1054524)

  第2届美国电影学会奖 (2001)
  年度佳片

  1. ##### MediaInfo ######
  2. General
  3. Unique ID                                : 214278645941513486410192413009782531119 (0xA13490E9B61676968C0B637B4D28642F)
  4. Complete name                            : Memento.2000.BluRay.1080p.x265.10bit.2Audio-MiniHD.mkv
  5. Format                                   : Matroska
  6. Format version                           : Version 4
  7. File size                                : 5.89 GiB
  8. Duration                                 : 1 h 53 min
  9. Overall bit rate                         : 7 430 kb/s
  10. Encoded date                             : UTC 2017-11-30 01:38:23
  11. Writing application                      : mkvmerge v17.0.0 ('Be Ur Friend') 64-bit
  12. Writing library                          : libebml v1.3.5 + libmatroska v1.4.8
  13. Video
  14. ID                                       : 1
  15. Format                                   : HEVC
  16. Format/Info                              : High Efficiency Video Coding
  17. Codec ID                                 : V_MPEGH/ISO/HEVC
  18. Duration                                 : 1 h 53 min
  19. Bit rate                                 : 6 023 kb/s
  20. Width                                    : 1 920 pixels
  21. Height                                   : 816 pixels
  22. Display aspect ratio                     : 2.35:1
  23. Frame rate mode                          : Constant
  24. Frame rate                               : 23.976 (24000/1001/53354) FPS
  25. Bits/(Pixel*Frame)                       : 0.160
  26. Stream size                              : 4.77 GiB (81%)
  27. Default                                  : Yes
  28. Forced                                   : No
  29. Audio #1
  30. ID                                       : 2
  31. Format                                   : AC-3
  32. Format/Info                              : Audio Coding 3
  33. Commercial name                          : Dolby Digital
  34. Codec ID                                 : A_AC3
  35. Duration                                 : 1 h 53 min
  36. Bit rate mode                            : Constant
  37. Bit rate                                 : 640 kb/s
  38. Channel(s)                               : 6 channels
  39. Channel layout                           : L R C LFE Ls Rs
  40. Sampling rate                            : 48.0 kHz
  41. Frame rate                               : 31.250 FPS (1536 SPF)
  42. Compression mode                         : Lossy
  43. Stream size                              : 519 MiB (9%)
  44. Title                                    : 英语原声
  45. Language                                 : English
  46. Service kind                             : Complete Main
  47. Default                                  : Yes
  48. Forced                                   : No
  49. Audio #2
  50. ID                                       : 3
  51. Format                                   : AC-3
  52. Format/Info                              : Audio Coding 3
  53. Commercial name                          : Dolby Digital
  54. Codec ID                                 : A_AC3
  55. Duration                                 : 1 h 53 min
  56. Bit rate mode                            : Constant
  57. Bit rate                                 : 640 kb/s
  58. Channel(s)                               : 6 channels
  59. Channel layout                           : L R C LFE Ls Rs
  60. Sampling rate                            : 48.0 kHz
  61. Frame rate                               : 31.250 FPS (1536 SPF)
  62. Compression mode                         : Lossy
  63. Stream size                              : 519 MiB (9%)
  64. Title                                    : 央视国配
  65. Language                                 : Chinese
  66. Service kind                             : Complete Main
  67. Default                                  : No
  68. Forced                                   : No
  69. Text #1
  70. ID                                       : 4
  71. Format                                   : PGS
  72. Muxing mode                              : zlib
  73. Codec ID                                 : S_HDMV/PGS
  74. Codec ID/Info                            : Picture based subtitle format used on BDs/HD-DVDs
  75. Duration                                 : 1 h 47 min
  76. Bit rate                                 : 58.1 kb/s
  77. Count of elements                        : 2456
  78. Stream size                              : 44.8 MiB (1%)
  79. Title                                    : 英文
  80. Language                                 : English
  81. Default                                  : Yes
  82. Forced                                   : No
  83. Text #2
  84. ID                                       : 5
  85. Format                                   : PGS
  86. Muxing mode                              : zlib
  87. Codec ID                                 : S_HDMV/PGS
  88. Codec ID/Info                            : Picture based subtitle format used on BDs/HD-DVDs
  89. Duration                                 : 1 h 50 min
  90. Bit rate                                 : 65.4 kb/s
  91. Count of elements                        : 5658
  92. Stream size                              : 51.6 MiB (1%)
  93. Title                                    : 囯配简中特效
  94. Language                                 : Chinese
  95. Default                                  : No
  96. Forced                                   : No
  97. Text #3
  98. ID                                       : 6
  99. Format                                   : UTF-8
  100. Codec ID                                 : S_TEXT/UTF8
  101. Codec ID/Info                            : UTF-8 Plain Text
  102. Duration                                 : 1 h 53 min
  103. Bit rate                                 : 45 b/s
  104. Count of elements                        : 1537
  105. Stream size                              : 37.7 KiB (0%)
  106. Title                                    : 原盘繁体中文
  107. Language                                 : Chinese
  108. Default                                  : No
  109. Forced                                   : No
  110. Text #4
  111. ID                                       : 7
  112. Format                                   : PGS
  113. Muxing mode                              : zlib
  114. Codec ID                                 : S_HDMV/PGS
  115. Codec ID/Info                            : Picture based subtitle format used on BDs/HD-DVDs
  116. Duration                                 : 1 h 50 min
  117. Bit rate                                 : 54.2 kb/s
  118. Count of elements                        : 3013
  119. Stream size                              : 42.6 MiB (1%)
  120. Title                                    : 简英双语特效
  121. Language                                 : Chinese
  122. Default                                  : No
  123. Forced                                   : No
  124. Text #5
  125. ID                                       : 8
  126. Format                                   : PGS
  127. Muxing mode                              : zlib
  128. Codec ID                                 : S_HDMV/PGS
  129. Codec ID/Info                            : Picture based subtitle format used on BDs/HD-DVDs
  130. Duration                                 : 1 h 49 min
  131. Bit rate                                 : 27.4 kb/s
  132. Count of elements                        : 2932
  133. Stream size                              : 21.5 MiB (0%)
  134. Title                                    : 简体中文
  135. Language                                 : Chinese
  136. Default                                  : No
  137. Forced                                   : No
  138. Text #6
  139. ID                                       : 9
  140. Format                                   : PGS
  141. Muxing mode                              : zlib
  142. Codec ID                                 : S_HDMV/PGS
  143. Codec ID/Info                            : Picture based subtitle format used on BDs/HD-DVDs
  144. Duration                                 : 1 h 49 min
  145. Bit rate                                 : 28.6 kb/s
  146. Count of elements                        : 2932
  147. Stream size                              : 22.4 MiB (0%)
  148. Title                                    : 繁体中文
  149. Language                                 : Chinese
  150. Default                                  : No
  151. Forced                                   : No
  152. Menu
  153. 00:00:00.000                             : :Chapter 01
  154. 00:06:25.802                             : :Chapter 02
  155. 00:11:06.456                             : :Chapter 03
  156. 00:16:13.096                             : :Chapter 04
  157. 00:22:17.836                             : :Chapter 05
  158. 00:28:30.583                             : :Chapter 06
  159. 00:39:26.822                             : :Chapter 07
  160. 00:48:56.765                             : :Chapter 08
  161. 01:02:41.673                             : :Chapter 09
  162. 01:09:57.318                             : :Chapter 10
  163. 01:17:18.131                             : :Chapter 11
  164. 01:21:44.274                             : :Chapter 12
  165. 01:26:33.354                             : :Chapter 13
  166. 01:33:58.966                             : :Chapter 14
  167. 01:40:48.667                             : :Chapter 15
  168. 01:49:18.551                             : :Chapter 16





此处一般会放置磁力链或种子下载链接,不过此链接需要注册会员才能看到,点击“立即注册”
磁力链下载【下载链接仅对注册会员开放,登陆后可见】
BT9527电影天堂 1、BT9527电影天堂提供的BT文件均来源于互联网抓取,只供网友学习交流、技术提升使用。
2、我们遵守BitTorrent点对点协议原则,任何版权问题请联系原资源发布商,我们不处理任何版权纠纷,谢谢!如有争议请联系邮箱:BT9527#hotmail.com(#换成@)
3、如果您发现某页面或地址有错误,请联系站长邮箱BT9527#hotmail.com(#换成@),我们会尽快处理。您的热心是对BT9527电影天堂最大的支持。
4、本站建议去正规影院观看电影以支持电影行业发展。
最新回复 (0)

你可以在 登录 or 注册 后,对此帖发表评论!

返回
发新帖