超凡战队[国英多音轨/简繁英特效字幕].Power.Rangers.2017.BluRay.2160p.x265.10bit.HDR.4Audio-MiniHD 22.05GB

版主小s 17天前 26

✔资源类型:BD-4K   ✔电影年份:2017   ✔电影地区:欧美   ✔电影分类:动作

◎译  名 超凡战队 / 战龙觉醒(港) / 金刚战士(台) / 恐龙战队 / 恐龙战队 真人版 / 超级战队 / 超能战队 / Mighty Morphin Power Rangers
◎片  名 Power Rangers
◎年  代 2017
◎产  地 美国 / 中国香港 / 加拿大
◎类  别 动作 / 科幻 / 冒险
◎语  言 英语
◎上映日期 2017-05-12(中国大陆) / 2017-03-24(美国)
◎IMDb链接 https://www.imdb.com/title/tt3717490/
◎豆瓣评分 4.5/10 (20144人评价)
◎豆瓣链接 https://movie.douban.com/subject/25881615/
◎片  长 124分钟
◎导  演 迪恩·以色列特 Dean Israelite (id:1347803)
◎编  剧 扎克·施坦茨 Zack Stentz (id:1357643)
       罗伯托·奥奇 Roberto Orci (id:1009508)
       伯克·沙普利斯 Burk Sharpless (id:1340743)
       马特·萨兹马 Matt Sazama (id:1340742)
       阿什利·米勒 Ashley Miller (id:1357642)
       约翰·盖汀斯 John Gatins (id:1321646)
       马克斯·兰迪斯   Max Landis (id:1023473)
       哈伊姆·萨班 Haim Saban (id:1139502)
       舒基·莱维 Shuki Levy (id:1019256)
◎演  员 戴克·蒙哥马利 Dacre Montgomery (id:1354781)
       娜奥米·斯科特 Naomi Scott (id:1325313)
       RJ·赛勒 RJ Cyler (id:1350258)
       林路迪 Ludi Lin (id:1351645)
       贝姬·戈麦斯 Becky G (id:1352172)
       伊丽莎白·班克斯 Elizabeth Banks (id:1004571)
       布莱恩·科兰斯顿 Bryan Cranston (id:1031807)
       比尔·哈德尔 Bill Hader (id:1017902)
       马特·夏夫利 Matt Shively (id:1226941)
       科迪·基尔斯利 Cody Kearsley (id:1371107)
       大卫·丹曼 David Denman (id:1087098)
       罗伯特·莫隆尼 Robert Moloney (id:1355210)
       安贾莉·杰 Anjali Jay (id:1349348)
       莎拉·格雷 Sarah Grey (id:1336318)
       摩根·泰勒·坎贝尔 Morgan Taylor Campbell (id:1359634)
       尼科·格莱瑟姆 Nico Greetham (id:1415058)
       雅南 Fiona Fu (id:1429826)
       杰森·弗兰克 Jason David Frank (id:1081079)
       艾米·乔·约翰逊 Amy Jo Johnson (id:1027180)
       帕特里克·萨邦圭 Patrick Sabongui (id:1014383)
       卡罗琳·凯芙 Caroline Cave (id:1280322)
       艾米莉·麦迪森 Emily Maddison (id:1346048)
       布莱恩·泰勒 Brian Tyler (id:1276412)
       李昭桦 Charles Lee (id:1352759)
       朱贝·何塞 Jubey Jose (id:1419120)
       斯科特·埃德斯坦 Scott Edelstein (id:1414097)
       特伦斯·伯杰龙 Terrence Bergeron (id:1411064)
       马可·伍斯特 Marco Wuest (id:1409520)
       西蒙·詹森 Simon Jansen (id:1409518)
       柯丝特·穆德利 Crystal Mudry (id:1467694)

◎简  介
  五个在校园被孤立的高中生,因为青春的荷尔蒙面临着许许多多的烦恼与迷茫。同时,黑暗势力丽达女王正蠢蠢欲动,为了寻找更多能量打造金人怪兽哥达来到地球。五名青少年命中注定地相遇,团结克服难关成为五色超凡战队,与他们的恐龙佐德人机合一雷霆出击拯救世界,毁天灭地一触即发……
  1. ##### MediaInfo ######
  2. General
  3. Unique ID                                : 248283733405008489183007366422814762321 (0xBAC9B52AF7EB8AAF8919F02B2F3FA551)
  4. Complete name                            : Power.Rangers.2017.BluRay.2160p.x265.10bit.HDR.4Audio-MiniHD.mkv
  5. Format                                   : Matroska
  6. Format version                           : Version 4
  7. File size                                : 22.0 GiB
  8. Duration                                 : 2 h 3 min
  9. Overall bit rate mode                    : Variable
  10. Overall bit rate                         : 25.5 Mb/s
  11. Encoded date                             : UTC 2018-01-19 01:18:40
  12. Writing application                      : mkvmerge v17.0.0 ('Be Ur Friend') 64-bit
  13. Writing library                          : libebml v1.3.5 + libmatroska v1.4.8
  14. Video
  15. ID                                       : 1
  16. Format                                   : HEVC
  17. Format/Info                              : High Efficiency Video Coding
  18. Format profile                           : Main 10@L5.1@High
  19. HDR format                               : SMPTE ST 2086, HDR10 compatible
  20. Codec ID                                 : V_MPEGH/ISO/HEVC
  21. Duration                                 : 2 h 3 min
  22. Bit rate                                 : 16.3 Mb/s
  23. Width                                    : 3 840 pixels
  24. Height                                   : 1 600 pixels
  25. Display aspect ratio                     : 2.40:1
  26. Frame rate mode                          : Constant
  27. Frame rate                               : 23.976 (24000/1001/53354) FPS
  28. Color space                              : YUV
  29. Chroma subsampling                       : 4:2:0 (Type 2)
  30. Bit depth                                : 10 bits
  31. Bits/(Pixel*Frame)                       : 0.111
  32. Stream size                              : 14.1 GiB (64%)
  33. Writing library                          : x265 2.5+47-6a882a9300c2:[Windows][GCC 7.2.0][64 bit] 10bit
  34. Encoding settings                        : cpuid=533541173503 / frame-threads=5 / numa-pools=36 / wpp / no-pmode / no-pme / no-psnr / no-ssim / log-level=2 / input-csp=1 / input-res=3840x1600 / interlace=0 / total-frames=0 / level-idc=51 / high-tier=1 / uhd-bd=0 / ref=5 / no-allow-non-conformance / repeat-headers / annexb / aud / hrd / info / hash=0 / no-temporal-layers / no-open-gop / min-keyint=1 / keyint=360 / bframes=9 / b-adapt=2 / b-pyramid / bframe-bias=0 / rc-lookahead=60 / lookahead-slices=4 / NTMzNTQ=uuDQuD2mJt9fsCf / scenecut=40 / no-intra-refresh / ctu=32 / min-cu-size=8 / no-rect / no-amp / max-tu-size=32 / tu-inter-depth=2 / tu-intra-depth=2 / limit-tu=4 / rdoq-level=1 / dynamic-rd=0.00 / ssim-rd / signhide / no-tskip / nr-intra=0 / nr-inter=0 / no-constrained-intra / no-strong-intra-smoothing / max-merge=3 / limit-refs=2 / limit-modes / me=3 / subme=5 / merange=25 / temporal-mvp / weightp / weightb / no-analyze-src-pics / deblock=-1:-1 / no-sao / no-sao-non-deblock / rd=4 / no-early-skip / no-rskip / no-fast-intra / no-tskip-fast / no-cu-lossless / b-intra / no-splitrd-skip / rdpenalty=1 / psy-rd=0.00 / psy-rdoq=5.00 / no-rd-refine / analysis-reuse-mode=0 / no-lossless / cbqpoffs=-3 / crqpoffs=-3 / rc=crf / crf=17.0 / qcomp=0.70 / qpstep=4 / stats-write=0 / stats-read=0 / vbv-maxrate=100000 / vbv-bufsize=100000 / vbv-init=0.9 / crf-max=0.0 / crf-min=0.0 / ipratio=1.40 / pbratio=1.30 / aq-mode=3 / aq-strength=0.90 / cutree / zone-count=0 / no-strict-cbr / qg-size=32 / no-rc-grain / qpmax=69 / qpmin=0 / no-const-vbv / sar=1 / overscan=0 / videoformat=5 / range=0 / colorprim=9 / transfer=16 / colormatrix=9 / chromaloc=1 / chromaloc-top=2 / chromaloc-bottom=2 / display-window=0 / master-display=G(13250,34500)B(7500,3000)R(34000,16000)WP(15635,16450)L(40000000,50) / max-cll=1000,657 / min-luma=0 / max-luma=1023 / log2-max-poc-lsb=8 / vui-timing-info / vui-hrd-info / slices=1 / opt-qp-pps / opt-ref-list-length-pps / no-multi-pass-opt-rps / scenecut-bias=0.05 / no-opt-cu-delta-qp / no-aq-motion / hdr / hdr-opt / no-dhdr10-opt / analysis-reuse-level=5 / scale-factor=0 / refine-intra=0 / refine-inter=0 / refine-mv=0 / no-limit-sao / ctu-info=0 / no-lowpass-dct / refine-mv-type=0
  35. Default                                  : Yes
  36. Forced                                   : No
  37. Color range                              : Limited
  38. Color primaries                          : BT.2020
  39. Transfer characteristics                 : PQ
  40. Matrix coefficients                      : BT.2020 non-constant
  41. Mastering display color primaries        : Display P3
  42. Mastering display luminance              : min: 0.0050 cd/m2, max: 4000 cd/m2
  43. Maximum Content Light Level              : 1000 cd/m2
  44. Maximum Frame-Average Light Level        : 657 cd/m2
  45. Audio #1
  46. ID                                       : 2
  47. Format                                   : MLP FBA 16-ch
  48. Format/Info                              : Meridian Lossless Packing FBA with 16-channel presentation
  49. Commercial name                          : Dolby TrueHD with Dolby Atmos
  50. Codec ID                                 : A_TRUEHD
  51. Duration                                 : 2 h 3 min
  52. Bit rate mode                            : Variable
  53. Bit rate                                 : 4 893 kb/s
  54. Maximum bit rate                         : 8 565 kb/s
  55. Channel(s)                               : 8 channels
  56. Channel layout                           : L R C LFE Ls Rs Lb Rb
  57. Sampling rate                            : 48.0 kHz
  58. Frame rate                               : 1 200.000 FPS (40 SPF)
  59. Compression mode                         : Lossless
  60. Stream size                              : 4.24 GiB (19%)
  61. Title                                    : 英语全景声
  62. Language                                 : English
  63. Default                                  : Yes
  64. Forced                                   : No
  65. Number of dynamic objects                : 15
  66. Bed channel count                        : 1 channel
  67. Bed channel configuration                : LFE
  68. Audio #2
  69. ID                                       : 3
  70. Format                                   : AC-3
  71. Format/Info                              : Audio Coding 3
  72. Commercial name                          : Dolby Digital
  73. Codec ID                                 : A_AC3
  74. Duration                                 : 2 h 3 min
  75. Bit rate mode                            : Constant
  76. Bit rate                                 : 640 kb/s
  77. Channel(s)                               : 6 channels
  78. Channel layout                           : L R C LFE Ls Rs
  79. Sampling rate                            : 48.0 kHz
  80. Frame rate                               : 31.250 FPS (1536 SPF)
  81. Compression mode                         : Lossy
  82. Stream size                              : 568 MiB (3%)
  83. Title                                    : 英语
  84. Language                                 : English
  85. Service kind                             : Complete Main
  86. Default                                  : No
  87. Forced                                   : No
  88. Audio #3
  89. ID                                       : 4
  90. Format                                   : DTS XLL
  91. Format/Info                              : Digital Theater Systems
  92. Commercial name                          : DTS-HD Master Audio
  93. Codec ID                                 : A_DTS
  94. Duration                                 : 2 h 3 min
  95. Bit rate mode                            : Variable
  96. Bit rate                                 : 2 704 kb/s
  97. Channel(s)                               : 8 channels
  98. Channel layout                           : C L R LFE Lb Rb Lss Rss
  99. Sampling rate                            : 48.0 kHz
  100. Frame rate                               : 93.750 FPS (512 SPF)
  101. Bit depth                                : 16 bits
  102. Compression mode                         : Lossless
  103. Delay relative to video                  : 2 s 630 ms
  104. Stream size                              : 2.34 GiB (11%)
  105. Title                                    : 中影国语DTSHD
  106. Language                                 : Chinese
  107. Default                                  : No
  108. Forced                                   : No
  109. Audio #4
  110. ID                                       : 5
  111. Format                                   : AC-3
  112. Format/Info                              : Audio Coding 3
  113. Commercial name                          : Dolby Digital
  114. Codec ID                                 : A_AC3
  115. Duration                                 : 2 h 3 min
  116. Bit rate mode                            : Constant
  117. Bit rate                                 : 640 kb/s
  118. Channel(s)                               : 6 channels
  119. Channel layout                           : L R C LFE Ls Rs
  120. Sampling rate                            : 48.0 kHz
  121. Frame rate                               : 31.250 FPS (1536 SPF)
  122. Compression mode                         : Lossy
  123. Delay relative to video                  : 2 s 630 ms
  124. Stream size                              : 567 MiB (3%)
  125. Title                                    : 中影国语
  126. Language                                 : Chinese
  127. Service kind                             : Complete Main
  128. Default                                  : No
  129. Forced                                   : No
  130. Text #1
  131. ID                                       : 6
  132. Format                                   : PGS
  133. Muxing mode                              : zlib
  134. Codec ID                                 : S_HDMV/PGS
  135. Codec ID/Info                            : Picture based subtitle format used on BDs/HD-DVDs
  136. Duration                                 : 1 h 55 min
  137. Bit rate                                 : 41.8 kb/s
  138. Count of elements                        : 3780
  139. Stream size                              : 34.4 MiB (0%)
  140. Title                                    : 英文
  141. Language                                 : English
  142. Default                                  : Yes
  143. Forced                                   : No
  144. Text #2
  145. ID                                       : 7
  146. Format                                   : PGS
  147. Muxing mode                              : zlib
  148. Codec ID                                 : S_HDMV/PGS
  149. Codec ID/Info                            : Picture based subtitle format used on BDs/HD-DVDs
  150. Duration                                 : 1 h 55 min
  151. Bit rate                                 : 32.7 kb/s
  152. Count of elements                        : 2556
  153. Stream size                              : 27.0 MiB (0%)
  154. Title                                    : 原盘繁体
  155. Language                                 : Chinese
  156. Default                                  : No
  157. Forced                                   : No
  158. Text #3
  159. ID                                       : 8
  160. Format                                   : PGS
  161. Muxing mode                              : zlib
  162. Codec ID                                 : S_HDMV/PGS
  163. Codec ID/Info                            : Picture based subtitle format used on BDs/HD-DVDs
  164. Duration                                 : 1 h 55 min
  165. Bit rate                                 : 32.0 kb/s
  166. Count of elements                        : 2556
  167. Stream size                              : 26.4 MiB (0%)
  168. Title                                    : 原盘简体
  169. Language                                 : Chinese
  170. Default                                  : No
  171. Forced                                   : No
  172. Text #4
  173. ID                                       : 9
  174. Format                                   : PGS
  175. Muxing mode                              : zlib
  176. Codec ID                                 : S_HDMV/PGS
  177. Codec ID/Info                            : Picture based subtitle format used on BDs/HD-DVDs
  178. Duration                                 : 1 h 52 min
  179. Bit rate                                 : 32.0 kb/s
  180. Count of elements                        : 3438
  181. Stream size                              : 25.8 MiB (0%)
  182. Title                                    : 国配中文
  183. Language                                 : Chinese
  184. Default                                  : No
  185. Forced                                   : No
  186. Text #5
  187. ID                                       : 10
  188. Format                                   : PGS
  189. Muxing mode                              : zlib
  190. Codec ID                                 : S_HDMV/PGS
  191. Codec ID/Info                            : Picture based subtitle format used on BDs/HD-DVDs
  192. Duration                                 : 1 h 53 min
  193. Bit rate                                 : 77.6 kb/s
  194. Count of elements                        : 4316
  195. Stream size                              : 62.9 MiB (0%)
  196. Title                                    : 简体特效
  197. Language                                 : Chinese
  198. Default                                  : No
  199. Forced                                   : No
  200. Text #6
  201. ID                                       : 11
  202. Format                                   : PGS
  203. Muxing mode                              : zlib
  204. Codec ID                                 : S_HDMV/PGS
  205. Codec ID/Info                            : Picture based subtitle format used on BDs/HD-DVDs
  206. Duration                                 : 1 h 53 min
  207. Bit rate                                 : 79.3 kb/s
  208. Count of elements                        : 4316
  209. Stream size                              : 64.3 MiB (0%)
  210. Title                                    : 繁体特效
  211. Language                                 : Chinese
  212. Default                                  : No
  213. Forced                                   : No
  214. Text #7
  215. ID                                       : 12
  216. Format                                   : PGS
  217. Muxing mode                              : zlib
  218. Codec ID                                 : S_HDMV/PGS
  219. Codec ID/Info                            : Picture based subtitle format used on BDs/HD-DVDs
  220. Duration                                 : 1 h 53 min
  221. Bit rate                                 : 74.8 kb/s
  222. Count of elements                        : 4316
  223. Stream size                              : 60.6 MiB (0%)
  224. Title                                    : 简英特效
  225. Language                                 : Chinese
  226. Default                                  : No
  227. Forced                                   : No
  228. Text #8
  229. ID                                       : 13
  230. Format                                   : PGS
  231. Muxing mode                              : zlib
  232. Codec ID                                 : S_HDMV/PGS
  233. Codec ID/Info                            : Picture based subtitle format used on BDs/HD-DVDs
  234. Duration                                 : 1 h 53 min
  235. Bit rate                                 : 77.0 kb/s
  236. Count of elements                        : 4316
  237. Stream size                              : 62.4 MiB (0%)
  238. Title                                    : 繁英特效
  239. Language                                 : Chinese
  240. Default                                  : No
  241. Forced                                   : No
  242. Menu
  243. 00:00:00.000                             : en:Chapter 01
  244. 00:11:23.516                             : en:Chapter 02
  245. 00:20:30.395                             : en:Chapter 03
  246. 00:31:17.125                             : en:Chapter 04
  247. 00:39:46.467                             : en:Chapter 05
  248. 00:50:49.046                             : en:Chapter 06
  249. 01:01:11.167                             : en:Chapter 07
  250. 01:12:54.995                             : en:Chapter 08
  251. 01:23:53.319                             : en:Chapter 09
  252. 01:31:17.472                             : en:Chapter 10
  253. 01:41:15.069                             : en:Chapter 11
  254. 01:53:18.458                             : en:Chapter 12





此处一般会放置磁力链或种子下载链接,不过此链接需要注册会员才能看到,点击“立即注册”
磁力链下载【下载链接仅对注册会员开放,登陆后可见】
BT9527电影天堂 1、BT9527电影天堂提供的BT文件均来源于互联网抓取,只供网友学习交流、技术提升使用。
2、我们遵守BitTorrent点对点协议原则,任何版权问题请联系原资源发布商,我们不处理任何版权纠纷,谢谢!如有争议请联系邮箱:BT9527#hotmail.com(#换成@)
3、如果您发现某页面或地址有错误,请联系站长邮箱BT9527#hotmail.com(#换成@),我们会尽快处理。您的热心是对BT9527电影天堂最大的支持。
4、本站建议去正规影院观看电影以支持电影行业发展。
最新回复 (0)

你可以在 登录 or 注册 后,对此帖发表评论!

返回
发新帖