超能查派[国英多音轨/中英字幕].Chappie.2015.Bluray.2160p.x265.10bit.HDR.2Audio-MiniHD 16.68GB

版主小s 3月前 138

✔资源类型:BD-4K   ✔电影年份:2015   ✔电影地区:欧美   ✔电影分类:动作

◎译  名 超能查派 / 超人类:卓比(港) / 成人世界(台) / 查皮 / 伙伴
◎片  名 Chappie
◎年  代 2015
◎产  地 美国 / 墨西哥 / 南非
◎类  别 动作 / 科幻 / 惊悚
◎语  言 英语
◎上映日期 2015-05-08(中国大陆) / 2015-03-06(美国)
◎IMDb链接 https://www.imdb.com/title/tt1823672/
◎豆瓣评分 7.4/10 (122337人评价)
◎豆瓣链接 https://movie.douban.com/subject/6846893/
◎片  长 119分钟(中国大陆)
◎导  演 尼尔·布洛姆坎普 Neill Blomkamp (id:1049576)
◎编  剧 尼尔·布洛姆坎普 Neill Blomkamp (id:1049576)
       特丽·塔歇尔 Terri Tatchell (id:1311893)
◎演  员 沙尔托·科普雷 Sharlto Copley (id:1036300)
       戴夫·帕特尔 Dev Patel (id:1025134)
       忍者 Ninja (id:1348270)
       尤兰蒂·维瑟 Yo-Landi Visser (id:1346350)
       何塞·巴勃罗·坎蒂略 Jose Pablo Cantillo (id:1000476)
       休·杰克曼 Hugh Jackman (id:1010508)
       西格妮·韦弗 Sigourney Weaver (id:1053569)
       布兰登·奥雷 Brandon Auret (id:1332603)
       约翰尼·赛力玛 Johnny Selema (id:1348274)
       安德森·库珀 Anderson Cooper (id:1018156)
       莫里斯·卡佩德 Maurice Carpede (id:1348273)
       詹森·库伯 Jason Cope (id:1319331)
       凯文·奥托 Kevin Otto (id:1348272)
       比尔·马钱特 Bill Marchant (id:1033122)
       罗伯特·霍布斯 Robert Hobbs (id:1331344)
       尤金·孔巴尼瓦 Eugene Khumbanyiwa (id:1342713)
       Vuyelwa Booi Vuyelwa Booi (id:1192754)
       万迪莱·莫尔巴西 Wandile Molebatsi (id:1405495)
       丹·希尔斯特 Dan Hirst (id:1217619)
       保罗·汉普赛尔 Paul Hampshire (id:1346348)
       格雷姆·达菲 Graeme Duffy (id:1346347)
       米兰达·弗利贡 Miranda Frigon (id:1346352)
       詹努斯·普林斯洛 Janus Prinsloo (id:1346351)
       肖恩·O.罗伯茨 Sean O. Roberts (id:1346349)
       克里斯·希尔兹 Chris Shields (id:1348271)
       汉斯·季默 Hans Zimmer (id:1054386)
       特伦特·欧派洛克 Trent Opaloch (id:1302480)
       戴安娜·西利尔斯 Diana Cilliers (id:1467795)
       马可·伍斯特 Marco Wuest (id:1409520)
       黄海 Hai Huang (id:1401245)

◎简  介
  故事发生在2016年的南非约翰内斯堡,为了应对不断攀升的犯罪率,某大型武器公司开发了全机械警察部队。他们将机械警察批量生产并投入使用,在打击犯罪方面取得了令人瞩目的效果。作为开发人员之一,程序员迪恩(戴夫·帕特尔 Dev Patel 饰)一直致力于制造出完全的人工智能机器人。直到某天,他的研究取得突破性进展,可是并未得到老板米歇尔·布莱德利(西格妮·韦弗 Sigourney Weaver 饰)的支持。不甘心失败的迪恩偷偷将一台不久前被打坏的机械警察带出公司,准备完善他的研究,谁知半路被三名匪徒劫持。在匪徒的威胁下,迪恩将22号写入全新系统。                                    
                                22号以“查派”的名字重生,它的诞生即将改变许多人的命运……

◎获奖情况 (共2项)
  第14届美国视觉效果协会奖 (2016)
  最佳真人电影CG动画角色(提名)

  第2届豆瓣电影年度榜单 (2015)
  5月最受关注电影(提名)

  1. ##### MediaInfo ######
  2. General
  3. Unique ID                                : 218048223970723635962457117669875771275 (0xA40A8F757E7AF3185F9D09760D27E78B)
  4. Complete name                            : Chappie.2015.Bluray.2160p.x265.10bit.HDR.2Audio-MiniHD.mkv
  5. Format                                   : Matroska
  6. Format version                           : Version 4
  7. File size                                : 16.7 GiB
  8. Duration                                 : 2 h 0 min
  9. Overall bit rate mode                    : Variable
  10. Overall bit rate                         : 19.9 Mb/s
  11. Encoded date                             : UTC 2018-07-04 13:09:06
  12. Writing application                      : mkvmerge v23.0.0 ('The Bride Said No') 64-bit
  13. Writing library                          : libebml v1.3.6 + libmatroska v1.4.9
  14. Video
  15. ID                                       : 1
  16. Format                                   : HEVC
  17. Format/Info                              : High Efficiency Video Coding
  18. Format profile                           : Main 10@L5.1@High
  19. HDR format                               : SMPTE ST 2086, HDR10 compatible
  20. Codec ID                                 : V_MPEGH/ISO/HEVC
  21. Duration                                 : 2 h 0 min
  22. Bit rate                                 : 8 581 kb/s
  23. Width                                    : 3 840 pixels
  24. Height                                   : 1 600 pixels
  25. Display aspect ratio                     : 2.40:1
  26. Frame rate mode                          : Constant
  27. Frame rate                               : 23.976 (24000/1001/53354) FPS
  28. Color space                              : YUV
  29. Chroma subsampling                       : 4:2:0 (Type 2)
  30. Bit depth                                : 10 bits
  31. Bits/(Pixel*Frame)                       : 0.058
  32. Stream size                              : 7.21 GiB (43%)
  33. Writing library                          : x265 2.8+4-g0ad419482+18:[Windows][GCC 7.1.0][64 bit] Yuuki 10bit
  34. Encoding settings                        : rc=crf / crf=18.0000 / qcomp=0.65 / qpstep=4 / vbv-maxrate=120000 / vbv-bufsize=120000 / vbv-init=0.9 / crf-max=0.0 / crf-min=0.0 / aq-mode=1 / aq-strength=0.80 / cbqpoffs=-2 / crqpoffs=-2 / ipratio=1.40 / pbratio=1.30 / psy-rd=0.00 / psy-rdoq=8.00 / deblock=-1:-1 / ref=4 / bframes=8 / b-adapt=2 / bframe-bias=0 / b-pyramid / b-intra / weightp / weightb / min-keyint=1 / max-keyint=360 / rc-lookahead=60 / gop-lookahead=0 / NTMzNTQ=uuDQuD2mJt9fsCf / scenecut=40 / radl=0 / max-cu-size=32 / min-cu-size=8 / me=3 / subme=5 / merange=25 / rdoq-level=2 / rd=4 / rdpenalty=1 / ----- / cutree / no-sao / no-rect / no-amp / no-open-gop / wpp / no-pmode / no-pme / no-psnr / no-ssim / nr-intra=0 / nr-inter=0 / no-constrained-intra / no-strong-intra-smoothing / max-tu-size=32 / tu-inter-depth=2 / tu-intra-depth=2 / limit-tu=3 / qg-size=32 / qpmax=69 / qpmin=0 / ----- / cpuid=533541111039 / frame-threads=4 / numa-pools=16 / log-level=2 / input-csp=1 / input-res=3840x1600 / interlace=0 / level-idc=51 / high-tier=1 / uhd-bd=0 / no-allow-non-conformance / repeat-headers / aud / hrd / info / hash=0 / no-temporal-layers / lookahead-slices=4 / no-intra-refresh / dynamic-rd=0.00 / ssim-rd / signhide / no-tskip / max-merge=3 / limit-refs=2 / limit-modes / temporal-mvp / no-analyze-src-pics / no-sao-non-deblock / no-early-skip / no-rskip / no-fast-intra / no-tskip-fast / no-cu-lossless / no-splitrd-skip / no-rd-refine / no-lossless / zone-count=0 / no-strict-cbr / no-rc-grain / no-const-vbv / sar=0 / overscan=0 / videoformat=5 / range=0 / colorprim=9 / transfer=16 / colormatrix=9 / chromaloc=1 / chromaloc-top=2 / chromaloc-bottom=2 / display-window=0 / master-display=G(13250,34500)B(7500,3000)R(34000,16000)WP(15635,16450)L(40000000,50) / max-cll=8154,1570 / min-luma=0 / max-luma=1023 / log2-max-poc-lsb=8 / vui-timing-info / vui-hrd-info / slices=1 / no-opt-qp-pps / no-opt-ref-list-length-pps / no-multi-pass-opt-rps / scenecut-bias=0.05 / no-opt-cu-delta-qp / no-aq-motion / hdr / hdr-opt / no-dhdr10-opt / no-idr-recovery-sei / analysis-reuse-level=5 / scale-factor=0 / refine-intra=0 / refine-inter=0 / refine-mv=0 / no-limit-sao / ctu-info=0 / no-lowpass-dct / refine-mv-type=0 / copy-pic=1 / max-ausize-factor=1.0 / no-dynamic-refine / no-single-sei
  35. Default                                  : Yes
  36. Forced                                   : No
  37. Color range                              : Limited
  38. Color primaries                          : BT.2020
  39. Transfer characteristics                 : PQ
  40. Matrix coefficients                      : BT.2020 non-constant
  41. Mastering display color primaries        : Display P3
  42. Mastering display luminance              : min: 0.0050 cd/m2, max: 4000 cd/m2
  43. Maximum Content Light Level              : 8154 cd/m2
  44. Maximum Frame-Average Light Level        : 1570 cd/m2
  45. Audio #1
  46. ID                                       : 2
  47. Format                                   : MLP FBA 16-ch
  48. Format/Info                              : Meridian Lossless Packing FBA with 16-channel presentation
  49. Commercial name                          : Dolby TrueHD with Dolby Atmos
  50. Codec ID                                 : A_TRUEHD
  51. Duration                                 : 2 h 0 min
  52. Bit rate mode                            : Variable
  53. Bit rate                                 : 5 407 kb/s
  54. Maximum bit rate                         : 8 448 kb/s
  55. Channel(s)                               : 8 channels
  56. Channel layout                           : L R C LFE Ls Rs Lb Rb
  57. Sampling rate                            : 48.0 kHz
  58. Frame rate                               : 1 200.000 FPS (40 SPF)
  59. Compression mode                         : Lossless
  60. Delay relative to video                  : 26 ms
  61. Stream size                              : 4.54 GiB (27%)
  62. Title                                    : 英文原声
  63. Language                                 : English
  64. Default                                  : Yes
  65. Forced                                   : No
  66. Number of dynamic objects                : 11
  67. Bed channel count                        : 1 channel
  68. Bed channel configuration                : LFE
  69. Audio #2
  70. ID                                       : 3
  71. Format                                   : DTS XLL
  72. Format/Info                              : Digital Theater Systems
  73. Commercial name                          : DTS-HD Master Audio
  74. Codec ID                                 : A_DTS
  75. Duration                                 : 2 h 0 min
  76. Bit rate mode                            : Variable
  77. Bit rate                                 : 5 762 kb/s
  78. Channel(s)                               : 8 channels
  79. Channel layout                           : C L R LFE Lb Rb Lss Rss
  80. Sampling rate                            : 48.0 kHz
  81. Frame rate                               : 93.750 FPS (512 SPF)
  82. Bit depth                                : 24 bits
  83. Compression mode                         : Lossless
  84. Stream size                              : 4.84 GiB (29%)
  85. Title                                    : 中文配音
  86. Language                                 : Chinese
  87. Default                                  : No
  88. Forced                                   : No
  89. Text #1
  90. ID                                       : 4
  91. Format                                   : PGS
  92. Muxing mode                              : zlib
  93. Codec ID                                 : S_HDMV/PGS
  94. Codec ID/Info                            : Picture based subtitle format used on BDs/HD-DVDs
  95. Duration                                 : 1 h 54 min
  96. Bit rate                                 : 32.7 kb/s
  97. Count of elements                        : 3296
  98. Stream size                              : 26.7 MiB (0%)
  99. Title                                    : 中文字幕
  100. Language                                 : Chinese
  101. Default                                  : No
  102. Forced                                   : No
  103. Text #2
  104. ID                                       : 5
  105. Format                                   : ASS
  106. Codec ID                                 : S_TEXT/ASS
  107. Codec ID/Info                            : Advanced Sub Station Alpha
  108. Duration                                 : 1 h 52 min
  109. Bit rate                                 : 245 b/s
  110. Count of elements                        : 1784
  111. Compression mode                         : Lossless
  112. Stream size                              : 202 KiB (0%)
  113. Title                                    : 中英双语
  114. Language                                 : Chinese
  115. Default                                  : No
  116. Forced                                   : No
  117. Text #3
  118. ID                                       : 6
  119. Format                                   : PGS
  120. Muxing mode                              : zlib
  121. Codec ID                                 : S_HDMV/PGS
  122. Codec ID/Info                            : Picture based subtitle format used on BDs/HD-DVDs
  123. Duration                                 : 1 h 52 min
  124. Bit rate                                 : 35.2 kb/s
  125. Count of elements                        : 3217
  126. Stream size                              : 28.2 MiB (0%)
  127. Title                                    : 英文字幕
  128. Language                                 : English
  129. Default                                  : No
  130. Forced                                   : No





此处一般会放置磁力链或种子下载链接,不过此链接需要注册会员才能看到,点击“立即注册”
磁力链下载【下载链接仅对注册会员开放,登陆后可见】
BT9527电影天堂 1、BT9527电影天堂提供的BT文件均来源于互联网抓取,只供网友学习交流、技术提升使用。
2、我们遵守BitTorrent点对点协议原则,任何版权问题请联系原资源发布商,我们不处理任何版权纠纷,谢谢!如有争议请联系邮箱:BT9527#hotmail.com(#换成@)
3、如果您发现某页面或地址有错误,请联系站长邮箱BT9527#hotmail.com(#换成@),我们会尽快处理。您的热心是对BT9527电影天堂最大的支持。
4、本站建议去正规影院观看电影以支持电影行业发展。
最新回复 (0)

你可以在 登录 or 注册 后,对此帖发表评论!

返回