超脑48小时[国英多音轨/简繁英特效字幕].Criminal.2016.BluRay.2160p.x265.10bit.HDR.2Audio-MiniHD 19.04GB

版主小s 17天前 27

✔资源类型:BD-4K   ✔电影年份:2016   ✔电影地区:欧美   ✔电影分类:剧情

◎译  名 超脑48小时 / 换脑缉凶(港) / 换脑行动(台) / 世纪罪犯
◎片  名 Criminal
◎年  代 2016
◎产  地 英国 / 美国
◎类  别 剧情 / 动作 / 悬疑 / 惊悚 / 犯罪
◎语  言 英语
◎上映日期 2016-05-13(中国大陆) / 2016-04-15(英国/美国)
◎IMDb链接 https://www.imdb.com/title/tt3014866/
◎豆瓣评分 6.6/10 (49943人评价)
◎豆瓣链接 https://movie.douban.com/subject/25944714/
◎片  长 113分钟
◎导  演 阿里尔·弗罗门 Ariel Vromen (id:1005450)
◎编  剧 道格拉斯·库克 Douglas Cook (id:1356775)
       大卫·韦斯伯格 David Weisberg (id:1356776)
◎演  员 凯文·科斯特纳 Kevin Costner (id:1016671)
       加里·奥德曼 Gary Oldman (id:1010507)
       汤米·李·琼斯 Tommy Lee Jones (id:1047994)
       瑞安·雷诺兹 Ryan Reynolds (id:1053623)
       盖尔·加朵 Gal Gadot (id:1044996)
       爱丽丝·伊芙 Alice Eve (id:1004565)
       迈克尔·皮特 Michael Pitt (id:1000090)
       詹迪·莫拉 Jordi Mollà (id:1010647)
       安婕·特拉乌 Antje Traue (id:1013842)
       斯科特·阿金斯 Scott Adkins (id:1017912)
       阿莫里·诺拉斯科 Amaury Nolasco (id:1013860)
       娜塔莉·伯恩 Natalie Burn (id:1341315)
       罗伯特·戴维 Robert Davi (id:1010551)
       安娜斯塔西亚·哈罗德 Anastasia Harrold (id:1350744)
       史蒂文·布兰德 Steven Brand (id:1009579)
       哈里·赫普 Harry Hepple (id:1352179)
       科林·萨蒙 Colin Salmon (id:1314721)
       索佩·迪瑞苏 Sope Dirisu (id:1373468)
       丹尼·韦伯 Danny Webb (id:1162175)
       大卫·艾弗里 David Avery (id:1347785)
       马修·斯蒂尔 Matthew Steer (id:1160393)
       安得烈·拜伦 Andrew Byron (id:1195416)
       亨利·加勒特 Henry Garrett (id:1319194)
       蒂姆·伍德沃德 Tim Woodward (id:1161189)
       普莉安卡·伯福德 Priyanga Burford (id:1372007)
       皮尔斯·摩根 Piers Morgan (id:1000258)
       路易斯·塔摩内 Louis Tamone (id:1195768)
       伊安·布尔费尔德 Ian Burfield (id:1340859)
       张欣 Xin Zhang (id:1325717)
       道格·科克尔 Doug Cockle (id:1070690)
       米迦勒·博迪 Michael Bodie (id:1367613)
       李·尼古拉斯·哈里斯 Lee Nicholas Harris (id:1333551)
       拉腊·德坎罗 Lara Decaro (id:1358104)
       布莱恩·泰勒 Brian Tyler (id:1276412)
       格兰特·阿姆斯特朗 Grant Armstrong (id:1460558)
       戴维·辛德 David Hindle (id:1466527)
       吉尔·泰勒 Jill Taylor (id:1298993)

◎简  介
  一位知悉国家机密的CIA探员比利·波普(瑞恩·雷诺兹 Ryan Reynolds 饰)意外身亡,在弗兰克斯博士(汤米·李·琼斯 Tommy Lee Jones 饰)的协助下将其记忆与技能植入了一位极度危险且无法预测的罪犯杰里科·斯图尔特(凯文·科斯特纳 Kevin Costner 饰)身上,而探员贵格·威尔斯(加里·奥德曼 Gary Oldman 饰)必须靠这位不定时炸弹来摧毁企图攫取国家机密的犯罪组织。杰里科·斯图尔特为了救回换脑后渐渐爱上的比利·波普被胁迫的妻子和孩子,重新找回自己的生活,不得不在48小时的时间里,与犯罪组织展开殊死搏斗。
  1. ##### MediaInfo ######
  2. General
  3. Unique ID                                : 19424862015620146998496812386030274109 (0xE9D17A3BC26B6891096E80A2871463D)
  4. Complete name                            : Criminal.2016.BluRay.2160p.x265.10bit.HDR.2Audio-MiniHD.mkv
  5. Format                                   : Matroska
  6. Format version                           : Version 4
  7. File size                                : 19.0 GiB
  8. Duration                                 : 1 h 53 min
  9. Overall bit rate mode                    : Variable
  10. Overall bit rate                         : 24.0 Mb/s
  11. Encoded date                             : UTC 2018-05-09 04:55:43
  12. Writing application                      : mkvmerge v20.0.0 ('I Am The Sun') 32-bit
  13. Writing library                          : libebml v1.3.5 + libmatroska v1.4.8
  14. Video
  15. ID                                       : 1
  16. Format                                   : HEVC
  17. Format/Info                              : High Efficiency Video Coding
  18. Format profile                           : Main 10@L5.1@High
  19. HDR format                               : SMPTE ST 2086, HDR10 compatible
  20. Codec ID                                 : V_MPEGH/ISO/HEVC
  21. Duration                                 : 1 h 53 min
  22. Bit rate                                 : 18.4 Mb/s
  23. Width                                    : 3 840 pixels
  24. Height                                   : 1 608 pixels
  25. Display aspect ratio                     : 2.40:1
  26. Frame rate mode                          : Constant
  27. Frame rate                               : 23.976 (24000/1001/53354) FPS
  28. Color space                              : YUV
  29. Chroma subsampling                       : 4:2:0 (Type 2)
  30. Bit depth                                : 10 bits
  31. Bits/(Pixel*Frame)                       : 0.124
  32. Stream size                              : 14.6 GiB (77%)
  33. Writing library                          : x265 2.7+1-2aa737a99f51:[Windows][GCC 7.3.0][64 bit] 10bit
  34. Encoding settings                        : cpuid=533541173503 / frame-threads=8 / numa-pools=32,32 / wpp / no-pmode / no-pme / no-psnr / no-ssim / log-level=2 / input-csp=1 / input-res=3840x1608 / interlace=0 / total-frames=0 / level-idc=51 / high-tier=1 / uhd-bd=0 / ref=5 / no-allow-non-conformance / repeat-headers / annexb / aud / hrd / info / hash=0 / no-temporal-layers / no-open-gop / min-keyint=1 / keyint=360 / gop-lookahead=0 / bframes=8 / b-adapt=2 / b-pyramid / bframe-bias=0 / rc-lookahead=48 / lookahead-slices=4 / NTMzNTQ=uuDQuD2mJt9fsCf / scenecut=40 / radl=0 / no-intra-refresh / ctu=32 / min-cu-size=8 / no-rect / no-amp / max-tu-size=32 / tu-inter-depth=2 / tu-intra-depth=2 / limit-tu=4 / rdoq-level=1 / dynamic-rd=0.00 / no-ssim-rd / signhide / no-tskip / nr-intra=0 / nr-inter=0 / no-constrained-intra / no-strong-intra-smoothing / max-merge=3 / limit-refs=2 / limit-modes / me=3 / subme=5 / merange=25 / temporal-mvp / weightp / weightb / no-analyze-src-pics / deblock=-1:-1 / no-sao / no-sao-non-deblock / rd=4 / no-early-skip / no-rskip / no-fast-intra / no-tskip-fast / no-cu-lossless / b-intra / no-splitrd-skip / rdpenalty=1 / psy-rd=2.00 / psy-rdoq=5.00 / no-rd-refine / no-lossless / cbqpoffs=-2 / crqpoffs=-2 / rc=crf / crf=17.0 / qcomp=0.70 / qpstep=4 / stats-write=0 / stats-read=0 / vbv-maxrate=120000 / vbv-bufsize=120000 / vbv-init=0.9 / crf-max=0.0 / crf-min=0.0 / ipratio=1.40 / pbratio=1.30 / aq-mode=3 / aq-strength=0.90 / cutree / zone-count=0 / no-strict-cbr / qg-size=32 / no-rc-grain / qpmax=69 / qpmin=0 / no-const-vbv / sar=1 / overscan=0 / videoformat=5 / range=0 / colorprim=9 / transfer=16 / colormatrix=9 / chromaloc=1 / chromaloc-top=2 / chromaloc-bottom=2 / display-window=0 / master-display=G(13250,34500)B(7500,3000)R(34000,16000)WP(15635,16450)L(10000000,50) / max-cll=1000,206 / min-luma=0 / max-luma=1023 / log2-max-poc-lsb=8 / vui-timing-info / vui-hrd-info / slices=1 / no-opt-qp-pps / no-opt-ref-list-length-pps / no-multi-pass-opt-rps / scenecut-bias=0.05 / no-opt-cu-delta-qp / no-aq-motion / hdr / hdr-opt / no-dhdr10-opt / analysis-reuse-level=5 / scale-factor=0 / refine-intra=0 / refine-inter=0 / refine-mv=0 / no-limit-sao / ctu-info=0 / no-lowpass-dct / refine-mv-type=0 / copy-pic=1
  35. Default                                  : Yes
  36. Forced                                   : No
  37. Color range                              : Limited
  38. Color primaries                          : BT.2020
  39. Transfer characteristics                 : PQ
  40. Matrix coefficients                      : BT.2020 non-constant
  41. Mastering display color primaries        : Display P3
  42. Mastering display luminance              : min: 0.0050 cd/m2, max: 1000 cd/m2
  43. Maximum Content Light Level              : 1000 cd/m2
  44. Maximum Frame-Average Light Level        : 206 cd/m2
  45. Audio #1
  46. ID                                       : 2
  47. Format                                   : DTS XLL
  48. Format/Info                              : Digital Theater Systems
  49. Commercial name                          : DTS-HD Master Audio
  50. Codec ID                                 : A_DTS
  51. Duration                                 : 1 h 53 min
  52. Bit rate mode                            : Variable
  53. Bit rate                                 : 3 608 kb/s
  54. Channel(s)                               : 6 channels
  55. Channel layout                           : C L R Ls Rs LFE
  56. Sampling rate                            : 48.0 kHz
  57. Frame rate                               : 93.750 FPS (512 SPF)
  58. Bit depth                                : 24 bits
  59. Compression mode                         : Lossless
  60. Stream size                              : 2.86 GiB (15%)
  61. Title                                    : 英语DTSHD
  62. Language                                 : English
  63. Default                                  : Yes
  64. Forced                                   : No
  65. Audio #2
  66. ID                                       : 3
  67. Format                                   : DTS XLL
  68. Format/Info                              : Digital Theater Systems
  69. Commercial name                          : DTS-HD Master Audio
  70. Codec ID                                 : A_DTS
  71. Duration                                 : 1 h 53 min
  72. Bit rate mode                            : Variable
  73. Bit rate                                 : 1 932 kb/s
  74. Channel(s)                               : 6 channels
  75. Channel layout                           : C L R Ls Rs LFE
  76. Sampling rate                            : 48.0 kHz
  77. Frame rate                               : 93.750 FPS (512 SPF)
  78. Bit depth                                : 16 bits
  79. Compression mode                         : Lossless
  80. Stream size                              : 1.53 GiB (8%)
  81. Title                                    : 国语DTSHD
  82. Language                                 : Chinese
  83. Default                                  : No
  84. Forced                                   : No
  85. Text #1
  86. ID                                       : 4
  87. Format                                   : PGS
  88. Muxing mode                              : zlib
  89. Codec ID                                 : S_HDMV/PGS
  90. Codec ID/Info                            : Picture based subtitle format used on BDs/HD-DVDs
  91. Duration                                 : 1 h 43 min
  92. Bit rate                                 : 28.2 kb/s
  93. Count of elements                        : 2556
  94. Stream size                              : 20.9 MiB (0%)
  95. Title                                    : 英文
  96. Language                                 : English
  97. Default                                  : Yes
  98. Forced                                   : No
  99. Text #2
  100. ID                                       : 5
  101. Format                                   : PGS
  102. Muxing mode                              : zlib
  103. Codec ID                                 : S_HDMV/PGS
  104. Codec ID/Info                            : Picture based subtitle format used on BDs/HD-DVDs
  105. Duration                                 : 1 h 46 min
  106. Bit rate                                 : 19.1 kb/s
  107. Count of elements                        : 2212
  108. Stream size                              : 14.5 MiB (0%)
  109. Title                                    : R3简体
  110. Language                                 : Chinese
  111. Default                                  : No
  112. Forced                                   : No
  113. Text #3
  114. ID                                       : 6
  115. Format                                   : PGS
  116. Muxing mode                              : zlib
  117. Codec ID                                 : S_HDMV/PGS
  118. Codec ID/Info                            : Picture based subtitle format used on BDs/HD-DVDs
  119. Duration                                 : 1 h 46 min
  120. Bit rate                                 : 19.5 kb/s
  121. Count of elements                        : 2212
  122. Stream size                              : 14.8 MiB (0%)
  123. Title                                    : R3繁体
  124. Language                                 : Chinese
  125. Default                                  : No
  126. Forced                                   : No
  127. Text #4
  128. ID                                       : 7
  129. Format                                   : PGS
  130. Muxing mode                              : zlib
  131. Codec ID                                 : S_HDMV/PGS
  132. Codec ID/Info                            : Picture based subtitle format used on BDs/HD-DVDs
  133. Duration                                 : 1 h 46 min
  134. Bit rate                                 : 71.9 kb/s
  135. Count of elements                        : 3589
  136. Stream size                              : 54.9 MiB (0%)
  137. Title                                    : 简英特效
  138. Language                                 : Chinese
  139. Default                                  : No
  140. Forced                                   : No
  141. Text #5
  142. ID                                       : 8
  143. Format                                   : PGS
  144. Muxing mode                              : zlib
  145. Codec ID                                 : S_HDMV/PGS
  146. Codec ID/Info                            : Picture based subtitle format used on BDs/HD-DVDs
  147. Duration                                 : 1 h 46 min
  148. Bit rate                                 : 52.6 kb/s
  149. Count of elements                        : 3279
  150. Stream size                              : 40.1 MiB (0%)
  151. Title                                    : 国配简体特效
  152. Language                                 : Chinese
  153. Default                                  : No
  154. Forced                                   : No
  155. Menu
  156. 00:00:00.000                             : en:Chapter 01
  157. 00:10:41.265                             : en:Chapter 02
  158. 00:15:32.264                             : en:Chapter 03
  159. 00:23:45.340                             : en:Chapter 04
  160. 00:30:56.563                             : en:Chapter 05
  161. 00:36:01.367                             : en:Chapter 06
  162. 00:45:36.316                             : en:Chapter 07
  163. 00:48:48.508                             : en:Chapter 08
  164. 00:54:51.454                             : en:Chapter 09
  165. 01:01:46.244                             : en:Chapter 10
  166. 01:08:32.608                             : en:Chapter 11
  167. 01:16:11.608                             : en:Chapter 12
  168. 01:22:20.143                             : en:Chapter 13
  169. 01:29:52.011                             : en:Chapter 14
  170. 01:36:46.091                             : en:Chapter 15
  171. 01:42:08.497                             : en:Chapter 16





此处一般会放置磁力链或种子下载链接,不过此链接需要注册会员才能看到,点击“立即注册”
磁力链下载【下载链接仅对注册会员开放,登陆后可见】
BT9527电影天堂 1、BT9527电影天堂提供的BT文件均来源于互联网抓取,只供网友学习交流、技术提升使用。
2、我们遵守BitTorrent点对点协议原则,任何版权问题请联系原资源发布商,我们不处理任何版权纠纷,谢谢!如有争议请联系邮箱:BT9527#hotmail.com(#换成@)
3、如果您发现某页面或地址有错误,请联系站长邮箱BT9527#hotmail.com(#换成@),我们会尽快处理。您的热心是对BT9527电影天堂最大的支持。
4、本站建议去正规影院观看电影以支持电影行业发展。
最新回复 (0)

你可以在 登录 or 注册 后,对此帖发表评论!

返回
发新帖