边境杀手2:边境战士[简英字幕].Sicario.Day.of.the.Soldado.2018.BluRay.2160p.x265.10bit.HDR.2Audio-MiniHD 20.73GB

版主小s 15天前 30

✔资源类型:BD-4K   ✔电影年份:2018   ✔电影地区:欧美   ✔电影分类:剧情

◎译  名 边境杀手2:边境战士 / 怒火边界2:毒刑者(台) / 毒裁者2:无法无天(港) / 边境杀手2:战士 / 边境杀手2:兵凶战危 / 边境杀手2:并肩作战
◎片  名 Sicario: Day of the Soldado
◎年  代 2018
◎产  地 美国 / 意大利
◎类  别 剧情 / 动作 / 犯罪
◎语  言 英语 / 西班牙语
◎上映日期 2018-06-29(美国)
◎IMDb链接 https://www.imdb.com/title/tt5052474/
◎豆瓣评分 6.6/10 (35778人评价)
◎豆瓣链接 https://movie.douban.com/subject/26627736/
◎片  长 122分钟
◎导  演 斯特法诺·索利马 Stefano Sollima (id:1046134)
◎编  剧 泰勒·谢里丹 Taylor Sheridan (id:1340379)
◎演  员 本尼西奥·德尔·托罗 Benicio del Toro (id:1041005)
       乔什·布洛林 Josh Brolin (id:1004568)
       伊莎贝拉·莫奈 Isabela Moner (id:1356047)
       凯瑟琳·基纳 Catherine Keener (id:1002681)
       杰弗里·多诺万 Jeffrey Donovan (id:1044732)
       马修·莫迪恩 Matthew Modine (id:1002720)
       吉姆·戴佛提 Jim Devoti (id:1009879)
       伊恩·鲍汉 Ian Bohen (id:1066370)
       曼努埃尔·加西亚-鲁尔福 Manuel Garcia-Rulfo (id:1249341)
       杰克·皮克金 Jake Picking (id:1341288)
       布鲁诺·比齐尔 Bruno Bichir (id:1065924)
       杰克莫·巴泽尔 Jackamoe Buzzell (id:1069312)
       以利亚·罗德里格斯 Elijah Rodriguez (id:1384515)
       蕾切尔·德·拉·托尔 Rachel de la Torre (id:1394406)
       赛丽·罗杰斯 Tsailii Rogers (id:1394407)
       戴安娜·维利加斯 Diane Villegas (id:1394410)
       伊利安娜·多纳特兰 Iliana Donatlán (id:1394412)
       阿比盖尔·马洛 Abigail Marlowe (id:1394403)
       大卫·卡斯塔尼达 David Casta?eda (id:1402431)
       谢伊·惠格姆 Shea Whigham (id:1165173)
       米奇·多兰 Mickey Dolan (id:1425659)
       塔莎·埃姆斯 Tasha Ames (id:1394405)
       卡桑德拉·罗谢尔·费特兹 Cassandra Rochelle Fetters (id:1394404)
       克里斯托弗·赫耶达尔 Christopher Heyerdahl (id:1327290)
       斯塔福德·道格拉斯 Stafford Douglas (id:1340555)
       希尔迪·居兹纳多蒂尔 Hildur Guenadóttir (id:1421079)
       达瑞兹·沃斯基 Dariusz Wolski (id:1276296)
       德博拉·林恩·斯科特 Deborah Lynn Scott (id:1297071)

◎简  介
  在第一部《边境杀手》电影事件发生三年后,这部续集在德克萨斯州的美墨边境附近开幕。随着一名恐怖分子试图通过卡特尔贩毒集团从墨西哥偷渡到美国失败后自爆和之后在堪萨斯城发生的自杀式炸弹袭击,美墨边境的毒品战争升级,联邦特工马特·格拉弗(乔什·布洛林饰)与善变的亚历杭德罗(本尼西奥·德尔·托罗饰 )重新开始了合作。
  1. ##### MediaInfo ######
  2. General
  3. Unique ID                                : 65041772929686043085108027324451911635 (0x30EE96FDED88A271338F9408CB11F7D3)
  4. Complete name                            : Sicario.Day.of.the.Soldado.2018.BluRay.2160p.x265.10bit.HDR.2Audio-MiniHD.mkv
  5. Format                                   : Matroska
  6. Format version                           : Version 4
  7. File size                                : 20.7 GiB
  8. Duration                                 : 2 h 2 min
  9. Overall bit rate mode                    : Variable
  10. Overall bit rate                         : 24.2 Mb/s
  11. Encoded date                             : UTC 2018-10-02 11:32:42
  12. Writing application                      : mkvmerge v20.0.0 ('I Am The Sun') 64-bit
  13. Writing library                          : libebml v1.3.5 + libmatroska v1.4.8
  14. Video
  15. ID                                       : 1
  16. Format                                   : HEVC
  17. Format/Info                              : High Efficiency Video Coding
  18. Format profile                           : Main 10@L5.1@High
  19. HDR format                               : SMPTE ST 2086, HDR10 compatible
  20. Codec ID                                 : V_MPEGH/ISO/HEVC
  21. Duration                                 : 2 h 2 min
  22. Bit rate                                 : 20.5 Mb/s
  23. Width                                    : 3 840 pixels
  24. Height                                   : 1 600 pixels
  25. Display aspect ratio                     : 2.40:1
  26. Frame rate mode                          : Constant
  27. Frame rate                               : 23.976 (24000/1001/53354) FPS
  28. Color space                              : YUV
  29. Chroma subsampling                       : 4:2:0
  30. Bit depth                                : 10 bits
  31. Bits/(Pixel*Frame)                       : 0.139
  32. Stream size                              : 17.5 GiB (85%)
  33. Writing library                          : x265 2.8+4-g0ad419482+18:[Windows][GCC 7.1.0][64 bit] Yuuki 10bit
  34. Encoding settings                        : rc=crf / crf=18.0000 / qcomp=0.70 / qpstep=4 / vbv-maxrate=160000 / vbv-bufsize=160000 / vbv-init=0.9 / crf-max=0.0 / crf-min=0.0 / aq-mode=3 / aq-strength=0.90 / cbqpoffs=-3 / crqpoffs=-3 / ipratio=1.40 / pbratio=1.20 / psy-rd=2.00 / psy-rdoq=5.00 / deblock=-1:-1 / ref=5 / bframes=9 / b-adapt=2 / bframe-bias=0 / b-pyramid / b-intra / weightp / weightb / min-keyint=23 / max-keyint=300 / rc-lookahead=40 / gop-lookahead=0 / NTMzNTQ=uuDQuD2mJt9fsCf / scenecut=40 / radl=0 / max-cu-size=32 / min-cu-size=8 / me=3 / subme=4 / merange=25 / rdoq-level=2 / rd=4 / rdpenalty=1 / ----- / cutree / no-sao / no-rect / no-amp / no-open-gop / wpp / no-pmode / no-pme / no-psnr / no-ssim / nr-intra=0 / nr-inter=0 / no-constrained-intra / no-strong-intra-smoothing / max-tu-size=32 / tu-inter-depth=2 / tu-intra-depth=2 / limit-tu=4 / qg-size=32 / qpmax=69 / qpmin=0 / ----- / cpuid=533541111039 / frame-threads=5 / numa-pools=-,84 / log-level=2 / input-csp=1 / input-res=3840x1600 / interlace=0 / level-idc=0 / high-tier=1 / uhd-bd=0 / no-allow-non-conformance / no-repeat-headers / no-aud / hrd / info / hash=0 / no-temporal-layers / lookahead-slices=4 / no-intra-refresh / dynamic-rd=0.00 / no-ssim-rd / signhide / no-tskip / max-merge=3 / limit-refs=2 / limit-modes / temporal-mvp / no-analyze-src-pics / no-sao-non-deblock / no-early-skip / no-rskip / no-fast-intra / no-tskip-fast / no-cu-lossless / no-splitrd-skip / no-rd-refine / no-lossless / zone-count=0 / no-strict-cbr / no-rc-grain / no-const-vbv / sar=0 / overscan=0 / videoformat=5 / range=0 / colorprim=9 / transfer=16 / colormatrix=9 / chromaloc=0 / display-window=0 / master-display=G(13250,34500)B(7500,3000)R(34000,16000)WP(15635,16450)L(10000000,1) / max-cll=8325,775 / min-luma=0 / max-luma=1023 / log2-max-poc-lsb=8 / vui-timing-info / vui-hrd-info / slices=1 / no-opt-qp-pps / no-opt-ref-list-length-pps / no-multi-pass-opt-rps / scenecut-bias=0.05 / no-opt-cu-delta-qp / no-aq-motion / hdr / hdr-opt / no-dhdr10-opt / no-idr-recovery-sei / analysis-reuse-level=5 / scale-factor=0 / refine-intra=0 / refine-inter=0 / refine-mv=0 / no-limit-sao / ctu-info=0 / no-lowpass-dct / refine-mv-type=0 / copy-pic=1 / max-ausize-factor=1.0 / no-dynamic-refine / no-single-sei
  35. Default                                  : Yes
  36. Forced                                   : No
  37. Color range                              : Limited
  38. Color primaries                          : BT.2020
  39. Transfer characteristics                 : PQ
  40. Matrix coefficients                      : BT.2020 non-constant
  41. Mastering display color primaries        : Display P3
  42. Mastering display luminance              : min: 0.0001 cd/m2, max: 1000 cd/m2
  43. Maximum Content Light Level              : 8325 cd/m2
  44. Maximum Frame-Average Light Level        : 775 cd/m2
  45. Audio #1
  46. ID                                       : 2
  47. Format                                   : MLP FBA 16-ch
  48. Format/Info                              : Meridian Lossless Packing FBA with 16-channel presentation
  49. Commercial name                          : Dolby TrueHD with Dolby Atmos
  50. Codec ID                                 : A_TRUEHD
  51. Duration                                 : 2 h 2 min
  52. Bit rate mode                            : Variable
  53. Bit rate                                 : 2 990 kb/s
  54. Maximum bit rate                         : 5 031 kb/s
  55. Channel(s)                               : 8 channels
  56. Channel layout                           : L R C LFE Ls Rs Lb Rb
  57. Sampling rate                            : 48.0 kHz
  58. Frame rate                               : 1 200.000 FPS (40 SPF)
  59. Compression mode                         : Lossless
  60. Delay relative to video                  : 1 ms
  61. Stream size                              : 2.56 GiB (12%)
  62. Title                                    : 英语全景声
  63. Language                                 : English
  64. Default                                  : Yes
  65. Forced                                   : No
  66. Number of dynamic objects                : 11
  67. Bed channel count                        : 1 channel
  68. Bed channel configuration                : LFE
  69. Audio #2
  70. ID                                       : 3
  71. Format                                   : AC-3
  72. Format/Info                              : Audio Coding 3
  73. Commercial name                          : Dolby Digital
  74. Codec ID                                 : A_AC3
  75. Duration                                 : 2 h 2 min
  76. Bit rate mode                            : Constant
  77. Bit rate                                 : 640 kb/s
  78. Channel(s)                               : 6 channels
  79. Channel layout                           : L R C LFE Ls Rs
  80. Sampling rate                            : 48.0 kHz
  81. Frame rate                               : 31.250 FPS (1536 SPF)
  82. Compression mode                         : Lossy
  83. Delay relative to video                  : 1 ms
  84. Stream size                              : 560 MiB (3%)
  85. Title                                    : 英语AC-3
  86. Language                                 : English
  87. Service kind                             : Complete Main
  88. Default                                  : No
  89. Forced                                   : No
  90. Text #1
  91. ID                                       : 4
  92. Format                                   : PGS
  93. Muxing mode                              : zlib
  94. Codec ID                                 : S_HDMV/PGS
  95. Codec ID/Info                            : Picture based subtitle format used on BDs/HD-DVDs
  96. Duration                                 : 1 h 54 min
  97. Bit rate                                 : 11.5 kb/s
  98. Count of elements                        : 1690
  99. Stream size                              : 9.42 MiB (0%)
  100. Title                                    : 台版简中
  101. Language                                 : Chinese
  102. Default                                  : Yes
  103. Forced                                   : No
  104. Text #2
  105. ID                                       : 5
  106. Format                                   : PGS
  107. Muxing mode                              : zlib
  108. Codec ID                                 : S_HDMV/PGS
  109. Codec ID/Info                            : Picture based subtitle format used on BDs/HD-DVDs
  110. Duration                                 : 1 h 54 min
  111. Bit rate                                 : 26.5 kb/s
  112. Count of elements                        : 1843
  113. Stream size                              : 21.7 MiB (0%)
  114. Title                                    : 简英双语
  115. Language                                 : Chinese
  116. Default                                  : No
  117. Forced                                   : No
  118. Text #3
  119. ID                                       : 6
  120. Format                                   : PGS
  121. Muxing mode                              : zlib
  122. Codec ID                                 : S_HDMV/PGS
  123. Codec ID/Info                            : Picture based subtitle format used on BDs/HD-DVDs
  124. Duration                                 : 1 h 52 min
  125. Bit rate                                 : 20.3 kb/s
  126. Count of elements                        : 1624
  127. Stream size                              : 16.4 MiB (0%)
  128. Title                                    : 英文
  129. Language                                 : English
  130. Default                                  : No
  131. Forced                                   : No
  132. Menu
  133. 00:00:00.000                             : :Chapter 1
  134. 00:06:38.189                             : :Chapter 2
  135. 00:14:45.593                             : :Chapter 3
  136. 00:18:48.502                             : :Chapter 4
  137. 00:27:08.335                             : :Chapter 5
  138. 00:34:08.963                             : :Chapter 6
  139. 00:42:28.671                             : :Chapter 7
  140. 00:51:10.442                             : :Chapter 8
  141. 01:00:58.071                             : :Chapter 9
  142. 01:09:20.114                             : :Chapter 10
  143. 01:14:26.795                             : :Chapter 11
  144. 01:23:24.958                             : :Chapter 12
  145. 01:28:41.357                             : :Chapter 13
  146. 01:35:38.899                             : :Chapter 14
  147. 01:41:44.348                             : :Chapter 15
  148. 01:46:15.494                             : :Chapter 16





此处一般会放置磁力链或种子下载链接,不过此链接需要注册会员才能看到,点击“立即注册”
磁力链下载【下载链接仅对注册会员开放,登陆后可见】
BT9527电影天堂 1、BT9527电影天堂提供的BT文件均来源于互联网抓取,只供网友学习交流、技术提升使用。
2、我们遵守BitTorrent点对点协议原则,任何版权问题请联系原资源发布商,我们不处理任何版权纠纷,谢谢!如有争议请联系邮箱:BT9527#hotmail.com(#换成@)
3、如果您发现某页面或地址有错误,请联系站长邮箱BT9527#hotmail.com(#换成@),我们会尽快处理。您的热心是对BT9527电影天堂最大的支持。
4、本站建议去正规影院观看电影以支持电影行业发展。
最新回复 (0)

你可以在 登录 or 注册 后,对此帖发表评论!

返回