钢铁侠[国英多音轨/中英特效字幕].Iron.Man.2008.BluRay.2160p.x265.10bit.HDR.4Audio-MiniHD 29.73GB

版主小s 3月前 138

✔资源类型:BD-4K   ✔电影年份:2008   ✔电影地区:欧美   ✔电影分类:动作

◎译  名 钢铁侠 / 铁甲奇侠(港) / 钢铁人(台) / 铁人
◎片  名 Iron Man
◎年  代 2008
◎产  地 美国
◎类  别 动作 / 科幻 / 惊悚 / 冒险
◎语  言 英语 / 波斯语 / 乌尔都语 / 阿拉伯语
◎上映日期 2008-04-30(中国大陆) / 2008-04-14(悉尼首映) / 2008-05-02(美国)
◎IMDb链接 https://www.imdb.com/title/tt0371746/
◎豆瓣评分 8.4/10 (550038人评价)
◎豆瓣链接 https://movie.douban.com/subject/1432146/
◎片  长 126分钟
◎导  演 乔恩·费儒 Jon Favreau (id:1027164)
◎编  剧 阿特·马库姆 Art Marcum (id:1306770)
       马特·霍洛维 Matt Holloway (id:1286819)
       马克·弗格斯 Mark Fergus (id:1305751)
       霍克·奥斯比 Hawk Ostby (id:1305762)
       斯坦·李 Stan Lee (id:1013888)
       唐·赫克 Don Heck (id:1015145)
       杰克·科比 Jack Kirby (id:1050183)
◎演  员 小罗伯特·唐尼 Robert Downey Jr. (id:1016681)
       泰伦斯·霍华德 Terrence Howard (id:1055928)
       格温妮斯·帕特洛 Gwyneth Paltrow (id:1018985)
       杰夫·布里吉斯 Jeff Bridges (id:1036313)
       莱丝莉·比伯 Leslie Bibb (id:1040520)
       肖恩·托布 Shaun Toub (id:1317723)
       保罗·贝坦尼 Paul Bettany (id:1003482)
       乔恩·费儒 Jon Favreau (id:1027164)
       克拉克·格雷格 Clark Gregg (id:1000083)
       比尔·斯米托洛维奇 Bill Smitrovich (id:1149373)
       弗拉基米尔库布尔 Vladimir Kubr (id:1311463)
       德尼兹·恰克尔 Deniz ?akir (id:1207707)
       加布里埃尔·图特 Gabrielle Tuite (id:1152677)
       爱丽珊·麦卡蒂 Allison McAtee (id:1312821)
       斯坦·李 Stan Lee (id:1013888)
       唐娜·伊凡斯 Donna Evans (id:1283359)
       彼得·比灵斯雷 Peter Billingsley (id:1000178)
       法兰·塔希尔 Faran Tahir (id:1157354)
       瑞德·哈珀 Reid Harper (id:1312577)
       吉姆·克莱默 Jim Cramer (id:1222687)
       莉吉·诺尔·兰德 Ricki Lander (id:1392167)
       阿美莉嘉·奥利沃 America Olivo (id:1013885)
       珍妮·卡斯帕 Jeannine Kaspar (id:1308935)
       艾琳·魏辛格 Eileen Weisinger (id:1300635)
       本·纽马克 Ben Newmark (id:1186817)
       安东尼奥·克里斯蒂纳 Antonio Christina (id:1267505)
       卡莉·克劳格韦尔 Callie Croughwell (id:1177020)
       艾娃·罗斯·威廉斯 Ava Rose Williams (id:1178383)
       汤姆·莫雷罗 Tom Morello (id:1133177)
       威尔·莱曼 Will Lyman (id:1115251)
       拉娜·金纳尔 Lana Kinnear (id:1105775)
       塞缪尔·杰克逊 Samuel L. Jackson (id:1054408)
       罗伯特·麦克墨尔 Robert McMurrer (id:1254354)
       克里斯特尔·玛丽·丹纳 Crystal Marie Denha (id:1249615)
       约书亚·哈尔托 Joshua Harto (id:1014113)
       纳赞宁·波妮阿蒂 Nazanin Boniadi (id:1018319)
       帕特里克·奥康奈尔 Patrick O'Connell (id:1136051)
       莎拉·卡希尔 Sarah Cahill (id:1204187)
       蒂姆·金尼 Tim Guinee (id:1041181)
       法希姆·法兹利 Fahim Fazli (id:1240093)
       杰弗里·阿希金 Jeffrey Ashkin (id:1195075)
       提姆·里格比 Tim Rigby (id:1295664)
       乔恩·费儒 Jon Favreau (id:1027164)
       凯文·费奇 Kevin Feige (id:1340830)
       彼得·比灵斯雷 Peter Billingsley (id:1000178)
       路易斯·德·埃斯波西托 Louis D'Esposito (id:1345032)
       斯坦·李 Stan Lee (id:1013888)
       维多利亚·阿隆索 Victoria Alonso (id:1037447)
       苏珊·唐尼 Susan Downey (id:1040608)
       拉民·贾瓦迪 Ramin Djawadi (id:1302385)
       马修·利巴提克 Matthew Libatique (id:1009698)
       丹·勒邦塔尔 Dan Lebental (id:1289612)
       萨拉·芬兰 Sarah Finn (id:1283741)
       兰迪·希勒 Randi Hiller (id:1286647)
       戴维·F·克拉森 David F. Klassen (id:1288673)
       Suzan Wexler Suzan Wexler (id:1300762)
       Richard F. Mays Richard F. Mays (id:1291385)
       劳里·加芬 Lauri Gaffin (id:1284378)
       J·迈克尔·里瓦 J. Michael Riva (id:1009846)
       Laura Jean Shannon Laura Jean Shannon (id:1297314)
       Rebecca Bentjen Rebecca Bentjen (id:1281609)
       艾伦 A. 安彭 Allan A. Apone (id:1277325)
       Tracey Henton Tracey Henton (id:1094651)
       Cinzia Zanetti Cinzia Zanetti (id:1301632)
       凯特·比斯科 Kate Biscoe (id:1278692)
       Bart Mixon Bart Mixon (id:1117370)
       皮尔斯·奥斯汀 Pierce Austin (id:1060398)
       基思·谢尔 Keith Sayer (id:1296787)
       Maryann Marchetti Maryann Marchetti (id:1290944)
       Teressa Hill Teressa Hill (id:1161004)
       Natasha Ladek Natasha Ladek (id:1289234)
       Nina Paskowitz Nina Paskowitz (id:1294045)
       Jamie Kelman Jamie Kelman (id:1288362)
       Katherine Rees Katherine Rees (id:1295382)
       黛博拉·拉·米亚·德内弗 Deborah La Mia Denaver (id:1282236)
       Michael Moore Michael Moore (id:1292409)
       菲尔·尼尔森 Phil Neilson (id:1293013)
       杰拉德·古施密特 Gerald Gutschmidt (id:1285687)
       Greg Groenekamp Greg Groenekamp (id:1285507)
       James G. Hebb James G. Hebb (id:1286323)
       马修·格拉茨纳 Matthew Gratzner (id:1285331)
       温斯顿·赫尔加森 Winston Helgason (id:1286388)
       哈尔·T·希克尔 Hal T. Hickel (id:1286578)
       保罗·哈特森 Paul Huston (id:1287204)
       弗朗索瓦·兰伯特 Fran?ois Lambert (id:1289317)
       凯尔·麦克库洛奇 Kyle McCulloch (id:1291511)
       Patrick T. Myers Patrick T. Myers (id:1292827)
       马克·内特尔顿 Mark Nettleton (id:1293077)
       卢克·奥伯恩 Luke O'Byrne (id:1293374)
       Dav Rauch Dav Rauch (id:1295272)
       布莱恩·康纳 Brian Connor (id:1281143)
       Marc Chu Marc Chu (id:1280777)
        Nathan Reidt (id:1220676)
        Dan Enstrom (id:1228693)
        Clark Parkhurst (id:1228742)
        Sean Wallitsch (id:1234089)
       米奇·保尔森 Mitch Paulson (id:1247602)
        Matthew Doll (id:1247898)
        Diana K. Lee (id:1250445)
       格罗弗·理查森 Grover Richardson (id:1257679)
        Connor Murphy (id:1266879)
       Marc Sadeghi Marc Sadeghi (id:1276440)
       David Andrews David Andrews (id:1277251)
       Wayne Billheimer Wayne Billheimer (id:1278638)
       Jean Bolte Jean Bolte (id:1278923)
       Tami Carter Tami Carter (id:1280196)
       乔纳森·罗斯巴特 Jonathan Rothbart (id:1296181)
       Wesley Sewell Wesley Sewell (id:1297260)
       布鲁斯·霍尔科姆 Bruce Holcomb (id:1304914)
       Mason Nicoll Mason Nicoll (id:1305008)
       Bradley Mullennix Bradley Mullennix (id:1305208)
       理查德·布拉夫 Richard Bluff (id:1306174)
       斯科特·波恩 Scott Benza (id:1306387)
       罗素·保罗 Russell Paul (id:1306525)
       Shane Roberts Shane Roberts (id:1307046)
       Giles Hancock Giles Hancock (id:1307848)
       保罗·卡凡纳 Paul Kavanagh (id:1308173)
       贾卡布·皮斯泰奇 Jakub Pistecky (id:1308696)
       Kent Seki Kent Seki (id:1309257)
       Dan Wheaton Dan Wheaton (id:1310282)
       斯科特·查尔斯·斯图瓦特 Scott Charles Stewart (id:1327068)
       丹尼尔·萨迪克 Daniel Sudick (id:1298615)
       Philippe Rebours Philippe Rebours (id:1304413)
       Aaron McBride Aaron McBride (id:1304410)
       道格拉斯·斯迈斯 Douglas Smythe (id:1297968)
       本·斯诺 Ben Snow (id:1297983)
       罗伯特·斯普尔洛克 Robert Spurlock (id:1298196)
       杰夫·萨瑟兰 Jeff Sutherland (id:1298679)
       詹姆斯·托利 James Tooley (id:1299390)
       Simon van de Lagemaat Simon van de Lagemaat (id:1299824)
       John Walker John Walker (id:1300301)
       史蒂夫·沃尔顿 Steve Walton (id:1300376)
       山口千代 Keiji Yamaguchi (id:1301394)
       亚尼恩·艾略特 Janeen Elliott (id:1302457)
       行弘进 Susumu Yukuhiro (id:1303480)
       Chris Stoski Chris Stoski (id:1303591)
       Charlie Bradbury Charlie Bradbury (id:1304152)
       罗恩·伍道尔 Ron Woodall (id:1304309)
       托马斯·尼特曼 Thomas Nittmann (id:1414106)
       Mike L. Murphy Mike L. Murphy (id:1129105)
       Daniel Cavey Daniel Cavey (id:1072928)
       Cathy Burrows Cathy Burrows (id:1074874)
       Brenda Finster Brenda Finster (id:1079163)
       克里斯·英格索尔 Chris Ingersoll (id:1102738)
       W. Regan McGee W. Regan McGee (id:1122807)
       米歇尔·莫塔 Michelle Motta (id:1128937)
       约翰·尼尔森 John Nelson (id:1133026)
       斯蒂芬·佩珀 Stephen Pepper (id:1133485)
       Mark Moore Mark Moore (id:1133960)
       帕特里克·克兰斯 Patrick Clancey (id:1071903)
       罗伯特·查平 Robert Chapin (id:1069731)
       阿尔·贝利 Al Bailey (id:1058232)
       凯西·艾伦 Casey Allen (id:1020582)
       维多利亚·阿隆索 Victoria Alonso (id:1037447)
       Chris LeDoux Chris LeDoux (id:1037852)
       埃德森·威廉姆斯 Edson Williams (id:1043237)
       Michael Morgan Michael Morgan (id:1046990)
       丹尼·布雷特 Danny Braet (id:1048843)
       Tom Martinek Tom Martinek (id:1048885)
       道格·卢伯茨 Doug Luberts (id:1049045)
       多恩·休布勒 Dorne Huebler (id:1052562)
       Scott Schneider Scott Schneider (id:1147014)
       Chris Antonini Chris Antonini (id:1218346)
       Jill Berger Jill Berger (id:1181618)
       Carol Madrigal Carol Madrigal (id:1181684)
       查尔斯·施瓦茨 Charles Schwartz (id:1183413)
       Bernardo Jauregui Bernardo Jauregui (id:1184194)
       安吉拉·詹诺尼 Angela Giannoni (id:1172997)
       Clint Thorne Clint Thorne (id:1196120)
       Zack Nederlander Zack Nederlander (id:1192619)
       Yoshi DeHerrera Yoshi DeHerrera (id:1170636)
       Jessee J. Clarkson Jessee J. Clarkson (id:1210894)
       Tristam Gieni Tristam Gieni (id:1214041)
       R·J·杜雷尔 R.J. Durell (id:1432994)

◎简  介
  斯塔克军火公司是美军在全球范围内第一大军火供应商,其新任掌门人托尼?斯塔克(小罗伯特·唐尼 Robert Downey Jr. 饰)风流倜傥,天资聪颖。他与公司元老俄巴迪亚?斯坦(杰夫·布里吉斯 Jeff Bridges 饰)合作无间,共同将斯塔克公司的业务推向顶峰。现 实生活中的托尼热衷收集名贵跑车,搞点儿发明创造,当然露水姻缘更不可少。所幸他身边有维吉尼亚?波茨(格温妮斯·帕特洛 Gwyneth Paltrow 饰)这样的好助手细心打理一切,才让他能自由自在过着贵公子的生活。                                       
                                    在前往中东为军方展示新型武器的途中,托尼一众遭到恐怖分子袭击。他被弹片击中险些丧命,在英森博士的帮助下,托尼体内移植了一颗核动力的人工心脏。恐怖分子要求托尼制造强大的杀伤性武器,他和英森虚与委蛇,暗中制造了一套由聚变能源驱动的钢铁盔甲。穿上盔甲托尼大闹恐怖分子的基地,回到美...

◎获奖情况 (共6项)
  第81届奥斯卡金像奖 (2009)
  最佳视觉效果(提名)
  最佳音效剪辑(提名)

  第18届MTV电影奖 (2009)
  MTV电影奖 年度电影(提名)
  MTV电影奖 最佳男演员(提名)
   └──小罗伯特·唐尼 (id:1016681)

  第17届MTV电影奖 (2008)
  MTV电影奖 迄今最佳暑期电影

  第9届美国电影学会奖 (2008)
  年度佳片

  1. ##### MediaInfo ######
  2. General
  3. Unique ID                                : 254152853351852201742601186353853197701 (0xBF340F1F5AB4EAC883974C95DCB36D85)
  4. Complete name                            : 钢铁侠.Iron.Man.2008.BluRay.2160p.x265.10bit.HDR.4Audio-MiniHD.mkv
  5. Format                                   : Matroska
  6. Format version                           : Version 4
  7. File size                                : 29.7 GiB
  8. Duration                                 : 2 h 5 min
  9. Overall bit rate mode                    : Variable
  10. Overall bit rate                         : 33.8 Mb/s
  11. Encoded date                             : UTC 2017-11-21 16:30:31
  12. Writing application                      : mkvmerge v17.0.0 ('Be Ur Friend') 64-bit
  13. Writing library                          : libebml v1.3.5 + libmatroska v1.4.8
  14. Video
  15. ID                                       : 1
  16. Format                                   : HEVC
  17. Format/Info                              : High Efficiency Video Coding
  18. Format profile                           : Main 10@L5.1@High
  19. HDR format                               : SMPTE ST 2086, HDR10 compatible
  20. Codec ID                                 : V_MPEGH/ISO/HEVC
  21. Duration                                 : 2 h 5 min
  22. Bit rate                                 : 26.8 Mb/s
  23. Width                                    : 3 840 pixels
  24. Height                                   : 1 608 pixels
  25. Display aspect ratio                     : 2.40:1
  26. Frame rate mode                          : Constant
  27. Frame rate                               : 23.976 (24000/1001/53354) FPS
  28. Color space                              : YUV
  29. Chroma subsampling                       : 4:2:0 (Type 2)
  30. Bit depth                                : 10 bits
  31. Bits/(Pixel*Frame)                       : 0.181
  32. Stream size                              : 23.6 GiB (79%)
  33. Writing library                          : x265 2.5+27-0e168bdeb48b:[Windows][MSVC 1911][64 bit] 10bit
  34. Encoding settings                        : cpuid=533541050111 / frame-threads=4 / numa-pools=16,- / wpp / no-pmode / no-pme / no-psnr / no-ssim / log-level=2 / csvfn=D:\x265-workspace\output\gtx1\00000.2016.Blu-ray.2160p.x265.10bit.HDR.mUHD-FRDS.csv / csv-log-level=0 / input-csp=1 / input-res=3840x1608 / interlace=0 / total-frames=0 / level-idc=51 / high-tier=1 / uhd-bd=0 / ref=5 / no-allow-non-conformance / repeat-headers / annexb / aud / hrd / info / hash=0 / no-temporal-layers / no-open-gop / min-keyint=1 / keyint=360 / bframes=9 / b-adapt=2 / b-pyramid / bframe-bias=0 / rc-lookahead=60 / lookahead-slices=4 / NTMzNTQ=uuDQuD2mJt9fsCf / scenecut=40 / no-intra-refresh / ctu=32 / min-cu-size=8 / no-rect / no-amp / max-tu-size=32 / tu-inter-depth=2 / tu-intra-depth=2 / limit-tu=3 / rdoq-level=2 / dynamic-rd=0.00 / ssim-rd / signhide / no-tskip / nr-intra=0 / nr-inter=0 / no-constrained-intra / no-strong-intra-smoothing / max-merge=3 / limit-refs=2 / limit-modes / me=3 / subme=5 / merange=25 / temporal-mvp / weightp / weightb / no-analyze-src-pics / deblock=-1:-1 / no-sao / no-sao-non-deblock / rd=4 / no-early-skip / no-rskip / no-fast-intra / no-tskip-fast / no-cu-lossless / b-intra / no-splitrd-skip / rdpenalty=1 / psy-rd=0.00 / psy-rdoq=8.00 / no-rd-refine / analysis-reuse-mode=0 / no-lossless / cbqpoffs=-2 / crqpoffs=-2 / rc=crf / crf=17.0 / qcomp=0.70 / qpstep=4 / stats-write=0 / stats-read=0 / vbv-maxrate=100000 / vbv-bufsize=100000 / vbv-init=0.9 / crf-max=0.0 / crf-min=0.0 / ipratio=1.40 / pbratio=1.30 / aq-mode=3 / aq-strength=0.80 / cutree / zone-count=0 / no-strict-cbr / qg-size=32 / no-rc-grain / qpmax=69 / qpmin=0 / no-const-vbv / sar=0 / overscan=0 / videoformat=5 / range=0 / colorprim=9 / transfer=16 / colormatrix=9 / chromaloc=1 / chromaloc-top=2 / chromaloc-bottom=2 / display-window=0 / master-display=G(13250,34500)B(7500,3000)R(34000,16000)WP(15635,16450)L(10000000,50) / max-cll=0,0 / min-luma=0 / max-luma=1023 / log2-max-poc-lsb=8 / vui-timing-info / vui-hrd-info / slices=1 / opt-qp-pps / opt-ref-list-length-pps / no-multi-pass-opt-rps / scenecut-bias=0.05 / no-opt-cu-delta-qp / no-aq-motion / hdr / hdr-opt / no-dhdr10-opt / analysis-reuse-level=5 / scale-factor=0 / refine-intra=0 / refine-inter=0 / refine-mv=0 / no-limit-sao / ctu-info=0
  35. Default                                  : Yes
  36. Forced                                   : No
  37. Color range                              : Limited
  38. Color primaries                          : BT.2020
  39. Transfer characteristics                 : PQ
  40. Matrix coefficients                      : BT.2020 non-constant
  41. Mastering display color primaries        : Display P3
  42. Mastering display luminance              : min: 0.0050 cd/m2, max: 1000 cd/m2
  43. Audio #1
  44. ID                                       : 2
  45. Format                                   : DTS XLL
  46. Format/Info                              : Digital Theater Systems
  47. Commercial name                          : DTS-HD Master Audio
  48. Codec ID                                 : A_DTS
  49. Duration                                 : 2 h 5 min
  50. Bit rate mode                            : Variable
  51. Bit rate                                 : 4 053 kb/s
  52. Channel(s)                               : 6 channels
  53. Channel layout                           : C L R Ls Rs LFE
  54. Sampling rate                            : 48.0 kHz
  55. Frame rate                               : 93.750 FPS (512 SPF)
  56. Bit depth                                : 24 bits
  57. Compression mode                         : Lossless
  58. Delay relative to video                  : 3 ms
  59. Stream size                              : 3.57 GiB (12%)
  60. Title                                    : 英语 DTS-HD
  61. Language                                 : English
  62. Default                                  : Yes
  63. Forced                                   : No
  64. Audio #2
  65. ID                                       : 3
  66. Format                                   : AC-3
  67. Format/Info                              : Audio Coding 3
  68. Commercial name                          : Dolby Digital
  69. Codec ID                                 : A_AC3
  70. Duration                                 : 2 h 5 min
  71. Bit rate mode                            : Constant
  72. Bit rate                                 : 640 kb/s
  73. Channel(s)                               : 6 channels
  74. Channel layout                           : L R C LFE Ls Rs
  75. Sampling rate                            : 48.0 kHz
  76. Frame rate                               : 31.250 FPS (1536 SPF)
  77. Compression mode                         : Lossy
  78. Delay relative to video                  : 24 ms
  79. Stream size                              : 577 MiB (2%)
  80. Title                                    : 英语 AC-3
  81. Language                                 : English
  82. Service kind                             : Complete Main
  83. Default                                  : No
  84. Forced                                   : No
  85. Audio #3
  86. ID                                       : 4
  87. Format                                   : MLP FBA
  88. Format/Info                              : Meridian Lossless Packing FBA
  89. Commercial name                          : Dolby TrueHD
  90. Codec ID                                 : A_TRUEHD
  91. Duration                                 : 2 h 5 min
  92. Bit rate mode                            : Variable
  93. Bit rate                                 : 1 529 kb/s
  94. Maximum bit rate                         : 2 958 kb/s
  95. Channel(s)                               : 6 channels
  96. Channel layout                           : L R C LFE Ls Rs
  97. Sampling rate                            : 48.0 kHz
  98. Frame rate                               : 1 200.000 FPS (40 SPF)
  99. Compression mode                         : Lossless
  100. Stream size                              : 1.35 GiB (5%)
  101. Title                                    : 国语 TrueHD
  102. Language                                 : Chinese
  103. Default                                  : No
  104. Forced                                   : No
  105. Audio #4
  106. ID                                       : 5
  107. Format                                   : AC-3
  108. Format/Info                              : Audio Coding 3
  109. Commercial name                          : Dolby Digital
  110. Codec ID                                 : A_AC3
  111. Duration                                 : 2 h 5 min
  112. Bit rate mode                            : Constant
  113. Bit rate                                 : 640 kb/s
  114. Channel(s)                               : 6 channels
  115. Channel layout                           : L R C LFE Ls Rs
  116. Sampling rate                            : 48.0 kHz
  117. Frame rate                               : 31.250 FPS (1536 SPF)
  118. Compression mode                         : Lossy
  119. Delay relative to video                  : 4 ms
  120. Stream size                              : 577 MiB (2%)
  121. Title                                    : 国语 AC-3
  122. Language                                 : Chinese
  123. Service kind                             : Complete Main
  124. Default                                  : No
  125. Forced                                   : No
  126. Text #1
  127. ID                                       : 6
  128. Format                                   : PGS
  129. Muxing mode                              : zlib
  130. Codec ID                                 : S_HDMV/PGS
  131. Codec ID/Info                            : Picture based subtitle format used on BDs/HD-DVDs
  132. Duration                                 : 2 h 4 min
  133. Bit rate                                 : 24.8 kb/s
  134. Count of elements                        : 2852
  135. Stream size                              : 22.1 MiB (0%)
  136. Title                                    : 英文
  137. Language                                 : English
  138. Default                                  : Yes
  139. Forced                                   : No
  140. Text #2
  141. ID                                       : 7
  142. Format                                   : PGS
  143. Muxing mode                              : zlib
  144. Codec ID                                 : S_HDMV/PGS
  145. Codec ID/Info                            : Picture based subtitle format used on BDs/HD-DVDs
  146. Duration                                 : 2 h 4 min
  147. Bit rate                                 : 17.1 kb/s
  148. Count of elements                        : 2604
  149. Stream size                              : 15.3 MiB (0%)
  150. Title                                    : 中文
  151. Language                                 : Chinese
  152. Default                                  : No
  153. Forced                                   : No
  154. Text #3
  155. ID                                       : 8
  156. Format                                   : PGS
  157. Muxing mode                              : zlib
  158. Codec ID                                 : S_HDMV/PGS
  159. Codec ID/Info                            : Picture based subtitle format used on BDs/HD-DVDs
  160. Duration                                 : 2 h 5 min
  161. Bit rate                                 : 49.6 kb/s
  162. Count of elements                        : 3060
  163. Stream size                              : 44.6 MiB (0%)
  164. Title                                    : 中英特效
  165. Language                                 : Chinese
  166. Default                                  : No
  167. Forced                                   : No
  168. Text #4
  169. ID                                       : 9
  170. Format                                   : PGS
  171. Muxing mode                              : zlib
  172. Codec ID                                 : S_HDMV/PGS
  173. Codec ID/Info                            : Picture based subtitle format used on BDs/HD-DVDs
  174. Duration                                 : 2 h 5 min
  175. Bit rate                                 : 49.6 kb/s
  176. Count of elements                        : 3307
  177. Stream size                              : 44.6 MiB (0%)
  178. Title                                    : 国配中文特效
  179. Language                                 : Chinese
  180. Default                                  : No
  181. Forced                                   : No





此处一般会放置磁力链或种子下载链接,不过此链接需要注册会员才能看到,点击“立即注册”
磁力链下载【下载链接仅对注册会员开放,登陆后可见】
BT9527电影天堂 1、BT9527电影天堂提供的BT文件均来源于互联网抓取,只供网友学习交流、技术提升使用。
2、我们遵守BitTorrent点对点协议原则,任何版权问题请联系原资源发布商,我们不处理任何版权纠纷,谢谢!如有争议请联系邮箱:BT9527#hotmail.com(#换成@)
3、如果您发现某页面或地址有错误,请联系站长邮箱BT9527#hotmail.com(#换成@),我们会尽快处理。您的热心是对BT9527电影天堂最大的支持。
4、本站建议去正规影院观看电影以支持电影行业发展。
最新回复 (0)

你可以在 登录 or 注册 后,对此帖发表评论!

返回