钢铁侠2[国英多音轨/中英特效字幕].Iron.Man.2.2010.BluRay.2160p.x265.10bit.HDR.4Audio-MiniHD 30.43GB

版主小s 3月前 162

✔资源类型:BD-4K   ✔电影年份:2010   ✔电影地区:欧美   ✔电影分类:动作

◎译  名 钢铁侠2 / 铁甲奇侠2(港) / 钢铁人2(台) / 铁人2
◎片  名 Iron Man 2
◎年  代 2010
◎产  地 美国
◎类  别 动作 / 科幻 / 冒险
◎语  言 英语 / 法语 / 俄语
◎上映日期 2010-05-07(中国大陆/美国)
◎IMDb链接 https://www.imdb.com/title/tt1228705/
◎豆瓣评分 7.7/10 (393840人评价)
◎豆瓣链接 https://movie.douban.com/subject/3066739/
◎片  长 124 分钟
◎导  演 乔恩·费儒 Jon Favreau (id:1027164)
◎编  剧 贾斯汀·塞洛克斯 Justin Theroux (id:1025199)
       斯坦·李 Stan Lee (id:1013888)
       杰克·科比 Jack Kirby (id:1050183)
◎演  员 小罗伯特·唐尼 Robert Downey Jr. (id:1016681)
       格温妮斯·帕特洛 Gwyneth Paltrow (id:1018985)
       米基·洛克 Mickey Rourke (id:1035646)
       斯嘉丽·约翰逊 Scarlett Johansson (id:1054453)
       山姆·洛克威尔 Sam Rockwell (id:1047972)
       唐·钱德尔 Don Cheadle (id:1053573)
       塞缪尔·杰克逊 Samuel L. Jackson (id:1054408)
       乔恩·费儒 Jon Favreau (id:1027164)
       保罗·贝坦尼 Paul Bettany (id:1003482)
       克拉克·格雷格 Clark Gregg (id:1000083)
       凯特·玛拉 Kate Mara (id:1031801)
       约翰·斯拉特里 John Slattery (id:1022661)
       斯坦·李 Stan Lee (id:1013888)
       海伦娜·马特森 Helena Mattsson (id:1000061)
       莱丝莉·比伯 Leslie Bibb (id:1040520)
       伊隆·马斯克 Elon Musk (id:1348829)
       蒂姆·金尼 Tim Guinee (id:1041181)
       盖瑞·山德林 Garry Shandling (id:1036574)
       德尼兹·恰克尔 Deniz ?akir (id:1207707)
       比尔·奥雷利 Bill O'Reilly (id:1050130)
       陆建艺 Jianyi Lu (id:1334341)
       埃夫吉恩尼·拉扎雷夫 Evgeniy Lazarev (id:1103513)
       克里斯汀·阿曼普 Christiane Amanpour (id:1059289)
       亚当·高德斯坦 Adam Goldstein (id:1000294)
       拉里·埃里森 Larry Ellison (id:1081907)
       菲利普·贝格龙 Philippe Bergeron (id:1064589)
       奥立薇娅·玛恩 Olivia Munn (id:1009303)
       Delka Nenkova Delka Nenkova (id:1451907)
       Lucy Walsh Lucy Walsh (id:1451563)
       基思·米德尔布鲁克 Keith Middlebrook (id:1434941)
       苏珊·唐尼 Susan Downey (id:1040608)
       凯文·费奇 Kevin Feige (id:1340830)
       路易斯·德·埃斯波西托 Louis D'Esposito (id:1345032)
       乔恩·费儒 Jon Favreau (id:1027164)
       约翰·戴布尼 John Debney (id:1025369)
       马修·利巴提克 Matthew Libatique (id:1009698)
       丹·勒邦塔尔 Dan Lebental (id:1289612)
       布里安娜·温 Breanna Wing (id:1412714)
       艾伦 A. 安彭 Allan A. Apone (id:1277325)
       肯尼思·布拉纳 Kenneth Branagh (id:1036342)
       丹尼·冈萨雷斯 Danny Gonzalez (id:1414099)
       扎克·贾德森 Zack Judson (id:1411059)
       埃蒙·巴特勒 Eamonn Butler (id:1279748)
       丹尼尔·萨迪克 Daniel Sudick (id:1298615)
       米格尔·A·萨莱克 Miguel A. Salek (id:1414108)
       麦克·冈瑟 Mike Gunther (id:1346354)

◎简  介
  钢铁侠托尼·斯塔克(小罗伯特·唐尼 Robert Downey Jr. 饰)在国会听证上拒绝交出最新技术。与此同时,他发现胸口的微型电弧反应炉正迅速造成血液的钯金属中毒。沮丧的托尼将斯塔克公司的总裁职务交予了秘书波兹(格温妮丝·帕特罗 Gwyneth Paltrow 饰),由她全权负责正在进行的纽约斯塔克博览会。波兹从法律部门调来助理娜塔莉(斯佳丽·约翰逊 Scarlett Johansson 饰)照顾托尼。托尼在媒体前的高调亮相引起了其父当年同事的儿子,伊凡(米基·洛克 Mickey Rourke 饰)的不满。为了实施报复,他子承父业,研制出了一套可与钢铁战衣相媲美的装备。伊凡的技术引起了托尼的竞争对手,军火商贾斯丁·汉默(山姆·洛克威尔 Sam Rockwell 饰)的注意,他设法将伊凡劫持出狱,秘密研究取代钢铁侠。正当托尼苦于钯金属中毒造成的失...

◎获奖情况 (共8项)
  第83届奥斯卡金像奖 (2011)
  最佳视觉效果(提名)

  第20届MTV电影奖 (2011)
  MTV电影奖 最佳反派(提名)
   └──米基·洛克 (id:1035646)

  第12届美国青少年选择奖 (2010)
  最佳科幻电影(提名)
  最佳科幻电影男演员(提名)
   └──小罗伯特·唐尼 (id:1016681)
  最佳科幻电影女演员(提名)
  最佳电影舞蹈(提名)
   └──小罗伯特·唐尼 (id:1016681)
  最佳电影反派(提名)
   └──米基·洛克 (id:1035646)
  最佳电影打斗(提名)

  1. ##### MediaInfo ######
  2. General
  3. Unique ID                                : 199622655352332991611768887129249853596 (0x962DECC9A96CBB89BB5A0C88105AB09C)
  4. Complete name                            : 钢铁侠2.Iron.Man.2.2010.BluRay.2160p.x265.10bit.HDR.4Audio-MiniHD.mkv
  5. Format                                   : Matroska
  6. Format version                           : Version 4
  7. File size                                : 30.4 GiB
  8. Duration                                 : 2 h 4 min
  9. Overall bit rate mode                    : Variable
  10. Overall bit rate                         : 35.0 Mb/s
  11. Encoded date                             : UTC 2017-11-22 13:23:12
  12. Writing application                      : mkvmerge v17.0.0 ('Be Ur Friend') 64-bit
  13. Writing library                          : libebml v1.3.5 + libmatroska v1.4.8
  14. Video
  15. ID                                       : 1
  16. Format                                   : HEVC
  17. Format/Info                              : High Efficiency Video Coding
  18. Format profile                           : Main 10@L5.1@High
  19. HDR format                               : SMPTE ST 2086, HDR10 compatible
  20. Codec ID                                 : V_MPEGH/ISO/HEVC
  21. Duration                                 : 2 h 4 min
  22. Bit rate                                 : 29.0 Mb/s
  23. Width                                    : 3 840 pixels
  24. Height                                   : 1 596 pixels
  25. Display aspect ratio                     : 2.40:1
  26. Frame rate mode                          : Constant
  27. Frame rate                               : 23.976 (24000/1001/53354) FPS
  28. Color space                              : YUV
  29. Chroma subsampling                       : 4:2:0 (Type 2)
  30. Bit depth                                : 10 bits
  31. Bits/(Pixel*Frame)                       : 0.197
  32. Stream size                              : 25.2 GiB (83%)
  33. Writing library                          : x265 2.5+27-0e168bdeb48b:[Windows][MSVC 1911][64 bit] 10bit
  34. Encoding settings                        : cpuid=533541050111 / frame-threads=4 / numa-pools=-,16 / wpp / no-pmode / no-pme / no-psnr / no-ssim / log-level=2 / csvfn=D:\x265-workspace\output\gtx2\00000.2016.Blu-ray.2160p.x265.10bit.HDR.mUHD-FRDS.csv / csv-log-level=0 / input-csp=1 / input-res=3840x1596 / interlace=0 / total-frames=0 / level-idc=51 / high-tier=1 / uhd-bd=0 / ref=5 / no-allow-non-conformance / repeat-headers / annexb / aud / hrd / info / hash=0 / no-temporal-layers / no-open-gop / min-keyint=1 / keyint=360 / bframes=9 / b-adapt=2 / b-pyramid / bframe-bias=0 / rc-lookahead=60 / lookahead-slices=4 / NTMzNTQ=uuDQuD2mJt9fsCf / scenecut=40 / no-intra-refresh / ctu=32 / min-cu-size=8 / no-rect / no-amp / max-tu-size=32 / tu-inter-depth=2 / tu-intra-depth=2 / limit-tu=3 / rdoq-level=2 / dynamic-rd=0.00 / ssim-rd / signhide / no-tskip / nr-intra=0 / nr-inter=0 / no-constrained-intra / no-strong-intra-smoothing / max-merge=3 / limit-refs=2 / limit-modes / me=3 / subme=5 / merange=25 / temporal-mvp / weightp / weightb / no-analyze-src-pics / deblock=-1:-1 / no-sao / no-sao-non-deblock / rd=4 / no-early-skip / no-rskip / no-fast-intra / no-tskip-fast / no-cu-lossless / b-intra / no-splitrd-skip / rdpenalty=1 / psy-rd=0.00 / psy-rdoq=8.00 / no-rd-refine / analysis-reuse-mode=0 / no-lossless / cbqpoffs=-2 / crqpoffs=-2 / rc=crf / crf=17.0 / qcomp=0.70 / qpstep=4 / stats-write=0 / stats-read=0 / vbv-maxrate=100000 / vbv-bufsize=100000 / vbv-init=0.9 / crf-max=0.0 / crf-min=0.0 / ipratio=1.40 / pbratio=1.30 / aq-mode=3 / aq-strength=0.80 / cutree / zone-count=0 / no-strict-cbr / qg-size=32 / no-rc-grain / qpmax=69 / qpmin=0 / no-const-vbv / sar=0 / overscan=0 / videoformat=5 / range=0 / colorprim=9 / transfer=16 / colormatrix=9 / chromaloc=1 / chromaloc-top=2 / chromaloc-bottom=2 / display-window=0 / master-display=G(13250,34500)B(7500,3000)R(34000,16000)WP(15635,16450)L(10000000,50) / max-cll=0,0 / min-luma=0 / max-luma=1023 / log2-max-poc-lsb=8 / vui-timing-info / vui-hrd-info / slices=1 / opt-qp-pps / opt-ref-list-length-pps / no-multi-pass-opt-rps / scenecut-bias=0.05 / no-opt-cu-delta-qp / no-aq-motion / hdr / hdr-opt / no-dhdr10-opt / analysis-reuse-level=5 / scale-factor=0 / refine-intra=0 / refine-inter=0 / refine-mv=0 / no-limit-sao / ctu-info=0
  35. Default                                  : Yes
  36. Forced                                   : No
  37. Color range                              : Limited
  38. Color primaries                          : BT.2020
  39. Transfer characteristics                 : PQ
  40. Matrix coefficients                      : BT.2020 non-constant
  41. Mastering display color primaries        : Display P3
  42. Mastering display luminance              : min: 0.0050 cd/m2, max: 1000 cd/m2
  43. Audio #1
  44. ID                                       : 2
  45. Format                                   : DTS XLL
  46. Format/Info                              : Digital Theater Systems
  47. Commercial name                          : DTS-HD Master Audio
  48. Codec ID                                 : A_DTS
  49. Duration                                 : 2 h 4 min
  50. Bit rate mode                            : Variable
  51. Bit rate                                 : 2 964 kb/s
  52. Channel(s)                               : 6 channels
  53. Channel layout                           : C L R Ls Rs LFE
  54. Sampling rate                            : 48.0 kHz
  55. Frame rate                               : 93.750 FPS (512 SPF)
  56. Bit depth                                : 24 bits
  57. Compression mode                         : Lossless
  58. Delay relative to video                  : -29 ms
  59. Stream size                              : 2.58 GiB (8%)
  60. Title                                    : 英语 DTS-HD
  61. Language                                 : English
  62. Default                                  : Yes
  63. Forced                                   : No
  64. Audio #2
  65. ID                                       : 3
  66. Format                                   : AC-3
  67. Format/Info                              : Audio Coding 3
  68. Commercial name                          : Dolby Digital
  69. Codec ID                                 : A_AC3
  70. Duration                                 : 2 h 4 min
  71. Bit rate mode                            : Constant
  72. Bit rate                                 : 640 kb/s
  73. Channel(s)                               : 6 channels
  74. Channel layout                           : L R C LFE Ls Rs
  75. Sampling rate                            : 48.0 kHz
  76. Frame rate                               : 31.250 FPS (1536 SPF)
  77. Compression mode                         : Lossy
  78. Delay relative to video                  : -8 ms
  79. Stream size                              : 570 MiB (2%)
  80. Title                                    : 英语 AC-3
  81. Language                                 : English
  82. Service kind                             : Complete Main
  83. Default                                  : No
  84. Forced                                   : No
  85. Audio #3
  86. ID                                       : 4
  87. Format                                   : MLP FBA
  88. Format/Info                              : Meridian Lossless Packing FBA
  89. Commercial name                          : Dolby TrueHD
  90. Codec ID                                 : A_TRUEHD
  91. Duration                                 : 2 h 4 min
  92. Bit rate mode                            : Variable
  93. Bit rate                                 : 1 597 kb/s
  94. Maximum bit rate                         : 2 925 kb/s
  95. Channel(s)                               : 6 channels
  96. Channel layout                           : L R C LFE Ls Rs
  97. Sampling rate                            : 48.0 kHz
  98. Frame rate                               : 1 200.000 FPS (40 SPF)
  99. Compression mode                         : Lossless
  100. Delay relative to video                  : -33 ms
  101. Stream size                              : 1.39 GiB (5%)
  102. Title                                    : 国语 TrueHD
  103. Language                                 : Chinese
  104. Default                                  : No
  105. Forced                                   : No
  106. Audio #4
  107. ID                                       : 5
  108. Format                                   : AC-3
  109. Format/Info                              : Audio Coding 3
  110. Commercial name                          : Dolby Digital
  111. Codec ID                                 : A_AC3
  112. Duration                                 : 2 h 4 min
  113. Bit rate mode                            : Constant
  114. Bit rate                                 : 640 kb/s
  115. Channel(s)                               : 6 channels
  116. Channel layout                           : L R C LFE Ls Rs
  117. Sampling rate                            : 48.0 kHz
  118. Frame rate                               : 31.250 FPS (1536 SPF)
  119. Compression mode                         : Lossy
  120. Delay relative to video                  : -26 ms
  121. Stream size                              : 570 MiB (2%)
  122. Title                                    : 国语 AC-3
  123. Language                                 : Chinese
  124. Service kind                             : Complete Main
  125. Default                                  : No
  126. Forced                                   : No
  127. Text #1
  128. ID                                       : 6
  129. Format                                   : PGS
  130. Muxing mode                              : zlib
  131. Codec ID                                 : S_HDMV/PGS
  132. Codec ID/Info                            : Picture based subtitle format used on BDs/HD-DVDs
  133. Duration                                 : 2 h 4 min
  134. Bit rate                                 : 28.2 kb/s
  135. Count of elements                        : 3064
  136. Stream size                              : 25.0 MiB (0%)
  137. Title                                    : 英文
  138. Language                                 : English
  139. Default                                  : Yes
  140. Forced                                   : No
  141. Text #2
  142. ID                                       : 7
  143. Format                                   : PGS
  144. Muxing mode                              : zlib
  145. Codec ID                                 : S_HDMV/PGS
  146. Codec ID/Info                            : Picture based subtitle format used on BDs/HD-DVDs
  147. Duration                                 : 2 h 4 min
  148. Bit rate                                 : 21.2 kb/s
  149. Count of elements                        : 3546
  150. Stream size                              : 18.8 MiB (0%)
  151. Title                                    : 中文
  152. Language                                 : Chinese
  153. Default                                  : No
  154. Forced                                   : No
  155. Text #3
  156. ID                                       : 8
  157. Format                                   : PGS
  158. Muxing mode                              : zlib
  159. Codec ID                                 : S_HDMV/PGS
  160. Codec ID/Info                            : Picture based subtitle format used on BDs/HD-DVDs
  161. Duration                                 : 2 h 4 min
  162. Bit rate                                 : 67.2 kb/s
  163. Count of elements                        : 4009
  164. Stream size                              : 59.8 MiB (0%)
  165. Title                                    : 中英特效
  166. Language                                 : Chinese
  167. Default                                  : No
  168. Forced                                   : No
  169. Text #4
  170. ID                                       : 9
  171. Format                                   : PGS
  172. Muxing mode                              : zlib
  173. Codec ID                                 : S_HDMV/PGS
  174. Codec ID/Info                            : Picture based subtitle format used on BDs/HD-DVDs
  175. Duration                                 : 2 h 4 min
  176. Bit rate                                 : 65.9 kb/s
  177. Count of elements                        : 4336
  178. Stream size                              : 58.7 MiB (0%)
  179. Title                                    : 国配中文特效
  180. Language                                 : Chinese
  181. Default                                  : No
  182. Forced                                   : No





此处一般会放置磁力链或种子下载链接,不过此链接需要注册会员才能看到,点击“立即注册”
磁力链下载【下载链接仅对注册会员开放,登陆后可见】
BT9527电影天堂 1、BT9527电影天堂提供的BT文件均来源于互联网抓取,只供网友学习交流、技术提升使用。
2、我们遵守BitTorrent点对点协议原则,任何版权问题请联系原资源发布商,我们不处理任何版权纠纷,谢谢!如有争议请联系邮箱:BT9527#hotmail.com(#换成@)
3、如果您发现某页面或地址有错误,请联系站长邮箱BT9527#hotmail.com(#换成@),我们会尽快处理。您的热心是对BT9527电影天堂最大的支持。
4、本站建议去正规影院观看电影以支持电影行业发展。
最新回复 (0)

你可以在 登录 or 注册 后,对此帖发表评论!

返回
发新帖