钢铁侠3[国英多音轨/中英特效字幕].Iron.Man.3.2013.BluRay.2160p.x265.10bit.HDR.4Audio-MiniHD 26.10GB

版主小s 17天前 26

✔资源类型:BD-4K   ✔电影年份:2013   ✔电影地区:欧美   ✔电影分类:动作

◎译  名 钢铁侠3 / 铁甲奇侠3(港) / 钢铁人3(台) / 铁人3
◎片  名 Iron Man 3
◎年  代 2013
◎产  地 美国 / 中国大陆
◎类  别 动作 / 科幻
◎语  言 英语 / 汉语普通话
◎上映日期 2013-05-01(中国大陆) / 2013-04-18(伦敦首映) / 2013-05-03(美国)
◎IMDb链接 https://www.imdb.com/title/tt1300854/
◎豆瓣评分 7.8/10 (401327人评价)
◎豆瓣链接 https://movie.douban.com/subject/3231742/
◎片  长 134分钟(中国大陆)
◎导  演 沙恩·布莱克 Shane Black (id:1036569)
◎编  剧 沙恩·布莱克 Shane Black (id:1036569)
       德鲁·皮尔斯 Drew Pearce (id:1327339)
       斯坦·李 Stan Lee (id:1013888)
       唐·赫克 Don Heck (id:1015145)
       拉里·利伯 Larry Lieber (id:1320298)
       杰克·科比 Jack Kirby (id:1050183)
       沃伦·埃利斯 Warren Ellis (id:1335556)
◎演  员 小罗伯特·唐尼 Robert Downey Jr. (id:1016681)
       盖·皮尔斯 Guy Pearce (id:1035672)
       格温妮斯·帕特洛 Gwyneth Paltrow (id:1018985)
       本·金斯利 Ben Kingsley (id:1054393)
       唐·钱德尔 Don Cheadle (id:1053573)
       保罗·贝坦尼 Paul Bettany (id:1003482)
       丽贝卡·豪尔 Rebecca Hall (id:1044871)
       乔恩·费儒 Jon Favreau (id:1027164)
       泰·辛普金斯 Ty Simpkins (id:1322702)
       威廉姆·赛德勒 William Sadler (id:1000095)
       詹姆斯·戴尔 James Badge Dale (id:1044722)
       伊芳·齐玛 Yvonne Zima (id:1164170)
       阿什利·汉弥尔顿 Ashley Hamilton (id:1027440)
       王学圻 Xueqi Wang (id:1054562)
       范冰冰 Bingbing Fan (id:1050059)
       马克·鲁弗洛 Mark Ruffalo (id:1040505)
       丽贝卡·麦德 Rebecca Mader (id:1044935)
       斯特芬妮·斯佐斯塔克 Stephanie Szostak (id:1304698)
       琼·里弗斯 Joan Rivers (id:1017929)
       比尔·马厄 Bill Maher (id:1004689)
       亚当·佩里 Adam Pally (id:1314810)
       米盖尔·弗尔 Miguel Ferrer (id:1007021)
       肖恩·托布 Shaun Toub (id:1317723)
       李斯羽 Siyu Li (id:1354602)
       科里·霍金斯 Corey Hawkins (id:1341485)
       戴尔·迪奇 Dale Dickey (id:1313800)
       汤姆·维图 Tom Virtue (id:1148744)
       费尔南多·钱 Fernando Chien (id:1339501)
       Kary Musa Kary Musa (id:1337289)
       迪索·拉莫斯 Diezel Ramos (id:1341036)
       大卫·安东尼·布廖内 David Anthony Buglione (id:1253781)
       肯德里克·克罗斯 Kendrick Cross (id:1212172)
       马丁·斯科特尔 Martin Skrtel (id:1358922)
       布瑞恩舍费尔 Brian Schaefer (id:1254045)
       安东尼·雷诺兹 Anthony Reynolds (id:1045790)
       布鲁克·杰伊·泰勒 Brooke Jaye Taylor (id:1254407)
       安德鲁·劳厄尔 Andrew Lauer (id:1019161)
       格伦·福斯特 Glenn Foster (id:1284041)
        Matt Nye (id:1227258)
       卡德罗莎·奥娜·卡罗尔  (id:1459808)
       珍娜·奥尔特加 Jenna Ortega (id:1437862)
       乔恩·费儒 Jon Favreau (id:1027164)
       凯文·费奇 Kevin Feige (id:1340830)
       路易斯·德·埃斯波西托 Louis D'Esposito (id:1345032)
       丹·密茨 Dan Mintz (id:1417958)
       布莱恩·泰勒 Brian Tyler (id:1276412)
       约翰·托尔 John Toll (id:1276189)
       Louise Frogley Louise Frogley (id:1284250)
       艾伦 A. 安彭 Allan A. Apone (id:1277325)
       刘静仪 Sylvia Liu (id:1290178)
       乔治·安祖利德斯 George Antzoulides (id:1407637)
       奥·布里克 Ed Ulbrich (id:1410103)
       拉斐尔·皮门特尔 Raphael A. Pimentel (id:1419122)
       丹·德里伍 Dan DeLeeuw (id:1388220)
       丹尼尔·萨迪克 Daniel Sudick (id:1298615)
       劳尔·佩雷斯 Raul Perez (id:1405397)
       斯科特·埃德斯坦 Scott Edelstein (id:1414097)
       罗恩·安德达尔 Ron Underdahl (id:1414354)
       克里斯托弗·汤森 Christopher Townsend (id:1337967)
       魯伊德加多 Ruy Delgado (id:1404954)
       乔斯·韦登 Joss Whedon (id:1010552)

◎简  介
  自纽约事件以来,托尼·斯塔克(小罗伯特·唐尼 Robert Downey Jr. 饰)为前所未有的焦虑症所困扰。他疯狂投入钢铁侠升级版的研发,为此废寝忘食,甚至忽略了女友佩珀·波茨(格温妮斯·帕特洛 Gwyneth Paltrow 饰)的感受。与此同时,臭名昭著的恐怖头目曼达林(本·金斯利 Ben Kingsley 饰)制造了一连串的爆炸袭击事件,托尼当年最忠诚的保镖即在最近的一次袭击中身负重伤。未过多久,托尼、佩珀以及曾与他有过一面之缘的女植物学家玛雅(丽贝卡·豪尔 Rebecca Hall 饰)在家中遭到猛烈的炮火袭击,几乎丧命,而这一切似乎都与22年前那名偶然邂逅的科学家阿尔德里奇·基连(盖·皮尔斯 Guy Pearce 饰)及其终极生物的研究有关。                                       
                                    即使有精密先进的铠甲护身,也无法排遣发自心底的焦虑。被击碎一切的托尼,如何穿越来自地狱的熊熊烈...

◎获奖情况 (共23项)
  第86届奥斯卡金像奖 (2014)
  最佳视觉效果(提名)

  第23届MTV电影奖 (2014)
  MTV电影奖 最佳客串表演(提名)
   └──琼·里弗斯 (id:1017929)
  MTV电影奖 最佳英雄形象(提名)
   └──小罗伯特·唐尼 (id:1016681)

  第12届美国视觉效果协会奖 (2014)
  最佳特效电影视觉效果(提名)
  最佳真人电影CG背景(提名)
   └──约翰·斯蒂文森-加尔文 (id:1311542)
  最佳电影虚拟摄影(提名)
   └──塞尔温·卡贝扎斯 (id:1312637)
  最佳电影视觉效果合成(提名)

  第61届美国音效剪辑协会奖 (2014)
  金卷轴奖 最佳电影音效剪辑(提名)

  第50届美国声音效果协会奖 (2014)
  真人电影最佳音效(提名)

  第19届美国评论家选择电影奖 (2014)
  最佳动作片(提名)
  动作片最佳男主角(提名)
   └──小罗伯特·唐尼 (id:1016681)
  动作片最佳女主角(提名)
   └──格温妮斯·帕特洛 (id:1018985)
  最佳视觉效果(提名)

  第17届好莱坞电影奖 (2013)
  年度电影(提名)
   └──沙恩·布莱克 (id:1036569)

  第15届美国青少年选择奖 (2013)
  最佳动作片
  最佳动作片男演员
   └──小罗伯特·唐尼 (id:1016681)
  最佳动作片女演员(提名)
   └──格温妮斯·帕特洛 (id:1018985)
  最佳科幻/奇幻电影(提名)
  最佳科幻/奇幻电影男演员(提名)
   └──小罗伯特·唐尼 (id:1016681)
  最佳科幻/奇幻电影女演员(提名)
   └──格温妮斯·帕特洛 (id:1018985)
  最佳电影反派(提名)
   └──本·金斯利 (id:1054393)
  最佳银幕拍档(提名)

  第4届豆瓣电影鑫像奖 (2014)
  鑫豆单元 最佳科幻/动作片(提名)

  1. ##### MediaInfo ######
  2. General
  3. Unique ID                                : 181317932888171607768952872880671511808 (0x8868904ABC468D8BB4877C7974E75500)
  4. Complete name                            : 钢铁侠3.Iron.Man.3.2013.BluRay.2160p.x265.10bit.HDR.4Audio-MiniHD.mkv
  5. Format                                   : Matroska
  6. Format version                           : Version 4
  7. File size                                : 26.1 GiB
  8. Duration                                 : 2 h 10 min
  9. Overall bit rate mode                    : Variable
  10. Overall bit rate                         : 28.6 Mb/s
  11. Encoded date                             : UTC 2017-11-22 13:03:25
  12. Writing application                      : mkvmerge v17.0.0 ('Be Ur Friend') 64-bit
  13. Writing library                          : libebml v1.3.5 + libmatroska v1.4.8
  14. Video
  15. ID                                       : 1
  16. Format                                   : HEVC
  17. Format/Info                              : High Efficiency Video Coding
  18. Format profile                           : Main 10@L5.1@High
  19. HDR format                               : SMPTE ST 2086, HDR10 compatible
  20. Codec ID                                 : V_MPEGH/ISO/HEVC
  21. Duration                                 : 2 h 10 min
  22. Bit rate                                 : 20.2 Mb/s
  23. Width                                    : 3 840 pixels
  24. Height                                   : 1 600 pixels
  25. Display aspect ratio                     : 2.40:1
  26. Frame rate mode                          : Constant
  27. Frame rate                               : 23.976 (24000/1001/53354) FPS
  28. Color space                              : YUV
  29. Chroma subsampling                       : 4:2:0 (Type 2)
  30. Bit depth                                : 10 bits
  31. Bits/(Pixel*Frame)                       : 0.137
  32. Stream size                              : 18.4 GiB (71%)
  33. Writing library                          : x265 2.5+27-0e168bdeb48b:[Windows][MSVC 1911][64 bit] 10bit
  34. Encoding settings                        : cpuid=533541050111 / frame-threads=5 / numa-pools=16,16 / wpp / no-pmode / no-pme / no-psnr / no-ssim / log-level=2 / csvfn=D:\x265-workspace\output\gtx3\00000.2016.Blu-ray.2160p.x265.10bit.HDR.mUHD-FRDS.csv / csv-log-level=0 / input-csp=1 / input-res=3840x1600 / interlace=0 / total-frames=0 / level-idc=51 / high-tier=1 / uhd-bd=0 / ref=5 / no-allow-non-conformance / repeat-headers / annexb / aud / hrd / info / hash=0 / no-temporal-layers / no-open-gop / min-keyint=1 / keyint=360 / bframes=9 / b-adapt=2 / b-pyramid / bframe-bias=0 / rc-lookahead=60 / lookahead-slices=4 / NTMzNTQ=uuDQuD2mJt9fsCf / scenecut=40 / no-intra-refresh / ctu=32 / min-cu-size=8 / no-rect / no-amp / max-tu-size=32 / tu-inter-depth=2 / tu-intra-depth=2 / limit-tu=3 / rdoq-level=2 / dynamic-rd=0.00 / ssim-rd / signhide / no-tskip / nr-intra=0 / nr-inter=0 / no-constrained-intra / no-strong-intra-smoothing / max-merge=3 / limit-refs=2 / limit-modes / me=3 / subme=5 / merange=25 / temporal-mvp / weightp / weightb / no-analyze-src-pics / deblock=-1:-1 / no-sao / no-sao-non-deblock / rd=4 / no-early-skip / no-rskip / no-fast-intra / no-tskip-fast / no-cu-lossless / b-intra / no-splitrd-skip / rdpenalty=1 / psy-rd=0.00 / psy-rdoq=8.00 / no-rd-refine / analysis-reuse-mode=0 / no-lossless / cbqpoffs=-2 / crqpoffs=-2 / rc=crf / crf=17.0 / qcomp=0.70 / qpstep=4 / stats-write=0 / stats-read=0 / vbv-maxrate=100000 / vbv-bufsize=100000 / vbv-init=0.9 / crf-max=0.0 / crf-min=0.0 / ipratio=1.40 / pbratio=1.30 / aq-mode=3 / aq-strength=0.80 / cutree / zone-count=0 / no-strict-cbr / qg-size=32 / no-rc-grain / qpmax=69 / qpmin=0 / no-const-vbv / sar=0 / overscan=0 / videoformat=5 / range=0 / colorprim=9 / transfer=16 / colormatrix=9 / chromaloc=1 / chromaloc-top=2 / chromaloc-bottom=2 / display-window=0 / master-display=G(13250,34500)B(7500,3000)R(34000,16000)WP(15635,16450)L(10000000,50) / max-cll=0,0 / min-luma=0 / max-luma=1023 / log2-max-poc-lsb=8 / vui-timing-info / vui-hrd-info / slices=1 / opt-qp-pps / opt-ref-list-length-pps / no-multi-pass-opt-rps / scenecut-bias=0.05 / no-opt-cu-delta-qp / no-aq-motion / hdr / hdr-opt / no-dhdr10-opt / analysis-reuse-level=5 / scale-factor=0 / refine-intra=0 / refine-inter=0 / refine-mv=0 / no-limit-sao / ctu-info=0
  35. Default                                  : Yes
  36. Forced                                   : No
  37. Color range                              : Limited
  38. Color primaries                          : BT.2020
  39. Transfer characteristics                 : PQ
  40. Matrix coefficients                      : BT.2020 non-constant
  41. Mastering display color primaries        : Display P3
  42. Mastering display luminance              : min: 0.0050 cd/m2, max: 1000 cd/m2
  43. Audio #1
  44. ID                                       : 2
  45. Format                                   : DTS XLL
  46. Format/Info                              : Digital Theater Systems
  47. Commercial name                          : DTS-HD Master Audio
  48. Codec ID                                 : A_DTS
  49. Duration                                 : 2 h 10 min
  50. Bit rate mode                            : Variable
  51. Bit rate                                 : 4 850 kb/s
  52. Channel(s)                               : 8 channels
  53. Channel layout                           : C L R LFE Lb Rb Lss Rss
  54. Sampling rate                            : 48.0 kHz
  55. Frame rate                               : 93.750 FPS (512 SPF)
  56. Bit depth                                : 24 bits
  57. Compression mode                         : Lossless
  58. Delay relative to video                  : -8 ms
  59. Stream size                              : 4.43 GiB (17%)
  60. Title                                    : 英语 DTS-HD
  61. Language                                 : English
  62. Default                                  : Yes
  63. Forced                                   : No
  64. Audio #2
  65. ID                                       : 3
  66. Format                                   : AC-3
  67. Format/Info                              : Audio Coding 3
  68. Commercial name                          : Dolby Digital
  69. Codec ID                                 : A_AC3
  70. Duration                                 : 2 h 10 min
  71. Bit rate mode                            : Constant
  72. Bit rate                                 : 640 kb/s
  73. Channel(s)                               : 6 channels
  74. Channel layout                           : L R C LFE Ls Rs
  75. Sampling rate                            : 48.0 kHz
  76. Frame rate                               : 31.250 FPS (1536 SPF)
  77. Compression mode                         : Lossy
  78. Delay relative to video                  : -8 ms
  79. Stream size                              : 599 MiB (2%)
  80. Title                                    : 英语 AC-3
  81. Language                                 : English
  82. Service kind                             : Complete Main
  83. Default                                  : No
  84. Forced                                   : No
  85. Audio #3
  86. ID                                       : 4
  87. Format                                   : MLP FBA
  88. Format/Info                              : Meridian Lossless Packing FBA
  89. Commercial name                          : Dolby TrueHD
  90. Codec ID                                 : A_TRUEHD
  91. Duration                                 : 2 h 10 min
  92. Bit rate mode                            : Variable
  93. Bit rate                                 : 2 111 kb/s
  94. Maximum bit rate                         : 3 573 kb/s
  95. Channel(s)                               : 8 channels
  96. Channel layout                           : L R C LFE Ls Rs Lb Rb
  97. Sampling rate                            : 48.0 kHz
  98. Frame rate                               : 1 200.000 FPS (40 SPF)
  99. Compression mode                         : Lossless
  100. Delay relative to video                  : -17 ms
  101. Stream size                              : 1.92 GiB (7%)
  102. Title                                    : 国语 TrueHD
  103. Language                                 : Chinese
  104. Default                                  : No
  105. Forced                                   : No
  106. Audio #4
  107. ID                                       : 5
  108. Format                                   : AC-3
  109. Format/Info                              : Audio Coding 3
  110. Commercial name                          : Dolby Digital
  111. Codec ID                                 : A_AC3
  112. Duration                                 : 2 h 10 min
  113. Bit rate mode                            : Constant
  114. Bit rate                                 : 640 kb/s
  115. Channel(s)                               : 6 channels
  116. Channel layout                           : L R C LFE Ls Rs
  117. Sampling rate                            : 48.0 kHz
  118. Frame rate                               : 31.250 FPS (1536 SPF)
  119. Compression mode                         : Lossy
  120. Delay relative to video                  : -7 ms
  121. Stream size                              : 598 MiB (2%)
  122. Title                                    : 国语 AC-3
  123. Language                                 : Chinese
  124. Service kind                             : Complete Main
  125. Default                                  : No
  126. Forced                                   : No
  127. Text #1
  128. ID                                       : 6
  129. Format                                   : PGS
  130. Muxing mode                              : zlib
  131. Codec ID                                 : S_HDMV/PGS
  132. Codec ID/Info                            : Picture based subtitle format used on BDs/HD-DVDs
  133. Duration                                 : 2 h 10 min
  134. Bit rate                                 : 26.9 kb/s
  135. Count of elements                        : 3632
  136. Stream size                              : 25.0 MiB (0%)
  137. Title                                    : 英文
  138. Language                                 : English
  139. Default                                  : Yes
  140. Forced                                   : No
  141. Text #2
  142. ID                                       : 7
  143. Format                                   : PGS
  144. Muxing mode                              : zlib
  145. Codec ID                                 : S_HDMV/PGS
  146. Codec ID/Info                            : Picture based subtitle format used on BDs/HD-DVDs
  147. Duration                                 : 2 h 10 min
  148. Bit rate                                 : 19.0 kb/s
  149. Count of elements                        : 3710
  150. Stream size                              : 17.7 MiB (0%)
  151. Title                                    : 中文
  152. Language                                 : Chinese
  153. Default                                  : No
  154. Forced                                   : No
  155. Text #3
  156. ID                                       : 8
  157. Format                                   : PGS
  158. Muxing mode                              : zlib
  159. Codec ID                                 : S_HDMV/PGS
  160. Codec ID/Info                            : Picture based subtitle format used on BDs/HD-DVDs
  161. Duration                                 : 2 h 10 min
  162. Bit rate                                 : 58.2 kb/s
  163. Count of elements                        : 3936
  164. Stream size                              : 54.3 MiB (0%)
  165. Title                                    : 中英特效
  166. Language                                 : Chinese
  167. Default                                  : No
  168. Forced                                   : No
  169. Text #4
  170. ID                                       : 9
  171. Format                                   : PGS
  172. Muxing mode                              : zlib
  173. Codec ID                                 : S_HDMV/PGS
  174. Codec ID/Info                            : Picture based subtitle format used on BDs/HD-DVDs
  175. Duration                                 : 2 h 10 min
  176. Bit rate                                 : 56.4 kb/s
  177. Count of elements                        : 4454
  178. Stream size                              : 52.6 MiB (0%)
  179. Title                                    : 国配中文特效
  180. Language                                 : Chinese
  181. Default                                  : No
  182. Forced                                   : No





此处一般会放置磁力链或种子下载链接,不过此链接需要注册会员才能看到,点击“立即注册”
磁力链下载【下载链接仅对注册会员开放,登陆后可见】
BT9527电影天堂 1、BT9527电影天堂提供的BT文件均来源于互联网抓取,只供网友学习交流、技术提升使用。
2、我们遵守BitTorrent点对点协议原则,任何版权问题请联系原资源发布商,我们不处理任何版权纠纷,谢谢!如有争议请联系邮箱:BT9527#hotmail.com(#换成@)
3、如果您发现某页面或地址有错误,请联系站长邮箱BT9527#hotmail.com(#换成@),我们会尽快处理。您的热心是对BT9527电影天堂最大的支持。
4、本站建议去正规影院观看电影以支持电影行业发展。
最新回复 (0)

你可以在 登录 or 注册 后,对此帖发表评论!

返回
发新帖