阿丽塔:战斗天使[国英多音轨/简繁英特效字幕].Alita.Battle.Angel.2019.BluRay.2160p.x265.10bit.HDR.3Audios-MiniHD 28.21GB

版主小s 12天前 31

✔资源类型:BD-4K   ✔电影年份:2019   ✔电影地区:欧美   ✔电影分类:动作

◎译  名 阿丽塔:战斗天使 / 铳梦 / 铳梦:战斗天使(港) / 艾莉塔:战斗天使(台)
◎片  名 Alita: Battle Angel
◎年  代 2019
◎产  地 美国 / 日本 / 加拿大
◎类  别 动作 / 科幻 / 冒险
◎语  言 英语 / 西班牙语
◎上映日期 2019-02-22(中国大陆) / 2019-02-05(中国台湾) / 2019-02-14(美国)
◎IMDb链接 https://www.imdb.com/title/tt0437086/
◎豆瓣评分 7.5/10 (562854人评价)
◎豆瓣链接 https://movie.douban.com/subject/1652592/
◎片  长 122分钟
◎导  演 罗伯特·罗德里格兹 Robert Rodriguez (id:1019016)
◎编  剧 詹姆斯·卡梅隆 James Cameron (id:1022571)
       莱塔·卡罗格里迪斯 Laeta Kalogridis (id:1049916)
       木城幸人 Yukito Kishiro (id:1032743)
◎演  员 罗莎·萨拉查 Rosa Salazar (id:1342762)
       克里斯托弗·瓦尔兹 Christoph Waltz (id:1054405)
       基恩·约翰逊 Keean Johnson (id:1399007)
       艾德·斯克林 Ed Skrein (id:1329130)
       马赫沙拉·阿里 Mahershala Ali (id:1004702)
       詹妮弗·康纳利 Jennifer Connelly (id:1016673)
       杰基·厄尔·哈利 Jackie Earle Haley (id:1009239)
       拉娜·康多 Lana Condor (id:1349157)
       小豪尔赫·兰登伯格 Jorge Lendeborg Jr. (id:1376970)
       艾莎·冈萨雷斯 Eiza González (id:1233270)
       卡斯帕·范·迪恩 Casper Van Dien (id:1036399)
       米歇尔·罗德里格兹 Michelle Rodriguez (id:1025174)
       爱德华·诺顿 Edward Norton (id:1035676)
       杰夫·法赫 Jeff Fahey (id:1036461)
       山姆麦地那 Sam Medina (id:1336516)
       德里克·梅耶斯 Derek Mears (id:1048121)
       艾丽·拉蒙特 Elle LaMont (id:1357869)
       豪尔赫·A·希门尼斯 Jorge A. Jimenez (id:1311800)
       马克·扎罗 Marko Zaror (id:1018111)
       比利·布莱尔 Billy Blair (id:1274695)
       伦纳德·吴 Leonard Wu (id:1328539)
       特里斯坦·里格斯 Tristan Riggs (id:1394142)
       迈克尔·洛夫·托利弗 Michael Love Toliver (id:1382456)
       金 King (id:1334780)
       达塞尔·丹妮尔 Darcel Danielle (id:1389970)
       马克·A·怀特 Mark A. White (id:1241494)
       杰·科特尼 Jai Courtney (id:1324668)
       詹姆斯·卡梅隆 James Cameron (id:1022571)
       乔恩·兰道 Jon Landau (id:1022988)
       程武 Wu Cheng (id:1406349)
        Emma Watts (id:1470745)
       琼基·XL Junkie XL (id:1037776)
       杜阿·利帕 Dua Lipa (id:1410198)
       伊恩·西尔弗斯坦 Ian Silverstein (id:1421439)
       迈克尔·科琴斯 Michael Cozens (id:1408610)
       戴恩·艾伦·史密斯 Dane Allan Smith (id:1407639)
       埃里克·赛恩登 Eric Saindon (id:1038266)
       克里斯·霍珀 Chris Hopper (id:1411057)
       阿曼·加洛 Aman Gahlot (id:1411055)
       扎克·贾德森 Zack Judson (id:1411059)
       特伦特·牛顿 Trent Newton (id:1411060)
       艾米丽·皮德 Emily Pead (id:1411061)
       英德里普·拉哈 Indreep Raha (id:1411062)
       亚当·沃特斯 Adam Waters (id:1411063)
       特伦斯·伯杰龙 Terrence Bergeron (id:1411064)
       保罗·哈林 Paul Harling (id:1411056)
       瑞秋·劳伦森 Rachel Laurenson (id:1414103)
       黄海 Hai Huang (id:1401245)

◎简  介
  故事发生在遥远的26世纪,外科医生依德(克里斯托弗·瓦尔兹 Christoph Waltz 饰)在垃圾场里捡到了只剩下头部的机械少女将她带回家中,给她装上了本来为自己已故的女儿所准备的义体,并取名阿丽塔(罗莎·萨拉扎尔 Rosa Salazar 饰)。苏醒后的阿丽塔对这个五彩斑斓但却暴力而又残酷的世界产生了浓厚的兴趣,在结识了青年雨果(基恩·约翰逊 Keean Johnson 饰)后,阿丽塔开始接触名为机动球的运动,并在比赛中展现出了惊人的格斗天赋。                                       
                                    在废铁城居民们的头顶,漂浮着巨大的浮空城市撒冷,废铁城居民们的一切劳作和付出,都是为了给撒冷提供继续运作的燃料。在大财阀维克特(马赫沙拉·阿里 Mahershala Ali 饰)所设立的机动球比赛中,最终获得冠军的人能够获得前往撒冷生活的资格,阿丽塔决定利用自己的格斗天赋参加比赛,却被卷入了一个巨大的阴...

◎获奖情况 (共10项)
  第47届动画安妮奖 (2020)
  最佳真人电影动画角色(提名)

  第18届美国视觉效果协会奖 (2020)
  最佳特效电影视觉效果(提名)
  最佳真人电影CG动画角色
  最佳真人电影CG背景(提名)
  最佳电影视觉效果合成(提名)

  第24届金卫星奖 (2020)
  电影部门 最佳动画片(提名)
  电影部门 最佳原创歌曲(提名)
  电影部门 最佳视觉效果

  第5届豆瓣电影年度榜单 (2018)
  最值得期待的外语电影(提名)

  第4届豆瓣电影年度榜单 (2017)
  最值得期待的外语电影(提名)

  1. ##### MediaInfo ######
  2. General
  3. Unique ID                                : 37992015448189531337713454729581763565 (0x1C94FEFB297D81BD0CA11207A58F1BED)
  4. Complete name                            : Alita.Battle.Angel.2019.BluRay.2160p.x265.10bit.HDR.3Audios-MiniHD.mkv
  5. Format                                   : Matroska
  6. Format version                           : Version 4
  7. File size                                : 28.2 GiB
  8. Duration                                 : 2 h 1 min
  9. Overall bit rate mode                    : Variable
  10. Overall bit rate                         : 33.1 Mb/s
  11. Encoded date                             : UTC 2019-07-17 21:17:28
  12. Writing application                      : mkvmerge v27.0.0 ('Metropolis') 64-bit
  13. Writing library                          : libebml v1.3.6 + libmatroska v1.4.9
  14. Video
  15. ID                                       : 1
  16. Format                                   : HEVC
  17. Format/Info                              : High Efficiency Video Coding
  18. Format profile                           : Main 10@L5.1@High
  19. HDR format                               : SMPTE ST 2086, HDR10 compatible
  20. Codec ID                                 : V_MPEGH/ISO/HEVC
  21. Duration                                 : 2 h 1 min
  22. Bit rate                                 : 26.8 Mb/s
  23. Width                                    : 3 840 pixels
  24. Height                                   : 1 608 pixels
  25. Display aspect ratio                     : 2.40:1
  26. Frame rate mode                          : Constant
  27. Frame rate                               : 23.976 (24000/1001/53354) FPS
  28. Color space                              : YUV
  29. Chroma subsampling                       : 4:2:0
  30. Bit depth                                : 10 bits
  31. Bits/(Pixel*Frame)                       : 0.181
  32. Stream size                              : 22.9 GiB (81%)
  33. Title                                    : mUHD-FRDS
  34. Writing library                          : x265 3.1+1-g11adf2568+23:[Windows][GCC 8.3.0][64 bit] Yuuki 10bit
  35. Encoding settings                        : rc=crf / crf=18.0000 / qcomp=0.80 / qpstep=4 / stats-write=0 / stats-read=0 / vbv-maxrate=160000 / vbv-bufsize=160000 / vbv-init=0.9 / crf-max=0.0 / crf-min=0.0 / no-lossless / no-cu-lossless / aq-mode=3 / aq-strength=0.80 / cbqpoffs=-3 / crqpoffs=-3 / ipratio=1.40 / pbratio=1.20 / psy-rd=2.00 / psy-rdoq=3.00 / deblock=-1:-1 / ref=5 / limit-refs=1 / limit-modes / bframes=8 / b-adapt=2 / bframe-bias=0 / b-pyramid / b-intra / weightp / weightb / min-keyint=23 / max-keyint=240 / rc-lookahead=60 / gop-lookahead=0 / NTMzNTQ=uuDQuD2mJt9fsCf / scenecut=40 / radl=0 / max-cu-size=32 / min-cu-size=8 / me=3 / subme=4 / merange=25 / rdoq-level=2 / rd=4 / rdpenalty=1 / dynamic-rd=0.00 / no-rd-refine / ----- / no-cutree / no-sao / no-rect / no-amp / no-open-gop / wpp / pmode / pme / no-psnr / no-ssim / nr-intra=0 / nr-inter=0 / no-constrained-intra / no-strong-intra-smoothing / max-tu-size=32 / tu-inter-depth=2 / tu-intra-depth=2 / limit-tu=0 / qg-size=32 / qpmax=69 / qpmin=0 / ----- / cpuid=533541111039 / frame-threads=6 / numa-pools=54,- / log-level=2 / input-csp=1 / input-res=3840x1608 / interlace=0 / level-idc=0 / high-tier=1 / uhd-bd=0 / no-allow-non-conformance / no-repeat-headers / no-aud / hrd / info / hash=0 / no-temporal-layers / lookahead-slices=0 / no-splice / no-intra-refresh / no-ssim-rd / signhide / no-tskip / max-merge=3 / temporal-mvp / no-analyze-src-pics / no-sao-non-deblock / no-early-skip / no-rskip / no-fast-intra / no-tskip-fast / no-splitrd-skip / zone-count=0 / no-strict-cbr / no-rc-grain / no-const-vbv / sar=0 / overscan=0 / videoformat=5 / range=0 / colorprim=9 / transfer=16 / colormatrix=9 / chromaloc=0 / display-window=0 / master-display=G(13250,34500)B(7500,3000)R(34000,16000)WP(15635,16450)L(10000000,1)cll=737,130 / min-luma=0 / max-luma=1023 / log2-max-poc-lsb=8 / vui-timing-info / vui-hrd-info / slices=1 / no-opt-qp-pps / no-opt-ref-list-length-pps / no-multi-pass-opt-rps / scenecut-bias=0.05 / no-opt-cu-delta-qp / no-aq-motion / hdr / hdr-opt / no-dhdr10-opt / no-idr-recovery-sei / analysis-reuse-level=5 / scale-factor=0 / refine-intra=0 / refine-inter=0 / refine-mv=0 / refine-ctu-distortion=0 / no-limit-sao / ctu-info=0 / no-lowpass-dct / refine-analysis-type=0 / copy-pic=1 / max-ausize-factor=1.0 / no-dynamic-refine / no-single-sei / no-hevc-aq / no-svt / no-field / qp-adaptation-range=1.00
  36. Default                                  : Yes
  37. Forced                                   : No
  38. Color range                              : Limited
  39. Color primaries                          : BT.2020
  40. Transfer characteristics                 : PQ
  41. Matrix coefficients                      : BT.2020 non-constant
  42. Mastering display color primaries        : Display P3
  43. Mastering display luminance              : min: 0.0001 cd/m2, max: 1000 cd/m2
  44. Maximum Content Light Level              : 737 cd/m2
  45. Maximum Frame-Average Light Level        : 130 cd/m2
  46. Audio #1
  47. ID                                       : 2
  48. Format                                   : MLP FBA 16-ch
  49. Format/Info                              : Meridian Lossless Packing FBA with 16-channel presentation
  50. Commercial name                          : Dolby TrueHD with Dolby Atmos
  51. Codec ID                                 : A_TRUEHD
  52. Duration                                 : 2 h 1 min
  53. Bit rate mode                            : Variable
  54. Bit rate                                 : 5 013 kb/s
  55. Channel(s)                               : 8 channels
  56. Channel layout                           : L R C LFE Ls Rs Lb Rb
  57. Sampling rate                            : 48.0 kHz
  58. Frame rate                               : 1 200.000 FPS (40 SPF)
  59. Compression mode                         : Lossless
  60. Stream size                              : 4.30 GiB (15%)
  61. Language                                 : English
  62. Default                                  : Yes
  63. Forced                                   : No
  64. Number of dynamic objects                : 13
  65. Bed channel count                        : 1 channel
  66. Bed channel configuration                : LFE
  67. Audio #2
  68. ID                                       : 3
  69. Format                                   : AC-3
  70. Format/Info                              : Audio Coding 3
  71. Commercial name                          : Dolby Digital
  72. Codec ID                                 : A_AC3
  73. Duration                                 : 2 h 1 min
  74. Bit rate mode                            : Constant
  75. Bit rate                                 : 640 kb/s
  76. Channel(s)                               : 6 channels
  77. Channel layout                           : L R C LFE Ls Rs
  78. Sampling rate                            : 48.0 kHz
  79. Frame rate                               : 31.250 FPS (1536 SPF)
  80. Compression mode                         : Lossy
  81. Stream size                              : 558 MiB (2%)
  82. Language                                 : English
  83. Service kind                             : Complete Main
  84. Default                                  : No
  85. Forced                                   : No
  86. Audio #3
  87. ID                                       : 4
  88. Format                                   : AC-3
  89. Format/Info                              : Audio Coding 3
  90. Commercial name                          : Dolby Digital
  91. Codec ID                                 : A_AC3
  92. Duration                                 : 2 h 1 min
  93. Bit rate mode                            : Constant
  94. Bit rate                                 : 384 kb/s
  95. Channel(s)                               : 6 channels
  96. Channel layout                           : L R C LFE Ls Rs
  97. Sampling rate                            : 48.0 kHz
  98. Frame rate                               : 31.250 FPS (1536 SPF)
  99. Compression mode                         : Lossy
  100. Delay relative to video                  : 14 ms
  101. Stream size                              : 335 MiB (1%)
  102. Title                                    : 长影公映国语
  103. Language                                 : Chinese
  104. Service kind                             : Complete Main
  105. Default                                  : No
  106. Forced                                   : No
  107. Text #1
  108. ID                                       : 5
  109. Format                                   : PGS
  110. Muxing mode                              : zlib
  111. Codec ID                                 : S_HDMV/PGS
  112. Codec ID/Info                            : Picture based subtitle format used on BDs/HD-DVDs
  113. Duration                                 : 1 h 58 min
  114. Bit rate                                 : 30.6 kb/s
  115. Count of elements                        : 3180
  116. Stream size                              : 26.0 MiB (0%)
  117. Language                                 : English
  118. Default                                  : No
  119. Forced                                   : No
  120. Text #2
  121. ID                                       : 6
  122. Format                                   : PGS
  123. Muxing mode                              : zlib
  124. Codec ID                                 : S_HDMV/PGS
  125. Codec ID/Info                            : Picture based subtitle format used on BDs/HD-DVDs
  126. Duration                                 : 2 h 1 min
  127. Bit rate                                 : 18.2 kb/s
  128. Count of elements                        : 2524
  129. Stream size                              : 15.8 MiB (0%)
  130. Title                                    : 原盘繁体HK
  131. Language                                 : Chinese
  132. Default                                  : No
  133. Forced                                   : No
  134. Text #3
  135. ID                                       : 7
  136. Format                                   : PGS
  137. Muxing mode                              : zlib
  138. Codec ID                                 : S_HDMV/PGS
  139. Codec ID/Info                            : Picture based subtitle format used on BDs/HD-DVDs
  140. Duration                                 : 2 h 1 min
  141. Bit rate                                 : 18.6 kb/s
  142. Count of elements                        : 2522
  143. Stream size                              : 16.2 MiB (0%)
  144. Title                                    : 原盘繁体TW
  145. Language                                 : Chinese
  146. Default                                  : No
  147. Forced                                   : No
  148. Text #4
  149. ID                                       : 8
  150. Format                                   : PGS
  151. Muxing mode                              : zlib
  152. Codec ID                                 : S_HDMV/PGS
  153. Codec ID/Info                            : Picture based subtitle format used on BDs/HD-DVDs
  154. Duration                                 : 2 h 1 min
  155. Bit rate                                 : 97.6 kb/s
  156. Count of elements                        : 6250
  157. Stream size                              : 85.0 MiB (0%)
  158. Title                                    : 国配简中特效
  159. Language                                 : Chinese
  160. Default                                  : No
  161. Forced                                   : No
  162. Text #5
  163. ID                                       : 9
  164. Format                                   : PGS
  165. Muxing mode                              : zlib
  166. Codec ID                                 : S_HDMV/PGS
  167. Codec ID/Info                            : Picture based subtitle format used on BDs/HD-DVDs
  168. Duration                                 : 2 h 1 min
  169. Bit rate                                 : 115 kb/s
  170. Count of elements                        : 5883
  171. Stream size                              : 101 MiB (0%)
  172. Title                                    : 简英双语特效
  173. Language                                 : Chinese
  174. Default                                  : Yes
  175. Forced                                   : No
  176. Menu
  177. 00:00:00.000                             : :第 01 章
  178. 00:03:28.625                             : :第 02 章
  179. 00:07:51.679                             : :第 03 章
  180. 00:10:07.982                             : :第 04 章
  181. 00:13:06.702                             : :第 05 章
  182. 00:15:06.739                             : :第 06 章
  183. 00:18:04.541                             : :第 07 章
  184. 00:22:58.710                             : :第 08 章
  185. 00:25:35.325                             : :第 09 章
  186. 00:31:40.898                             : :第 10 章
  187. 00:33:29.215                             : :第 11 章
  188. 00:36:32.815                             : :第 12 章
  189. 00:38:30.891                             : :第 13 章
  190. 00:42:05.481                             : :第 14 章
  191. 00:45:58.213                             : :第 15 章
  192. 00:48:31.450                             : :第 16 章
  193. 00:52:57.007                             : :第 17 章
  194. 00:55:14.352                             : :第 18 章
  195. 01:00:39.761                             : :第 19 章
  196. 01:02:56.564                             : :第 20 章
  197. 01:05:16.787                             : :第 21 章
  198. 01:10:50.496                             : :第 22 章
  199. 01:13:37.287                             : :第 23 章
  200. 01:16:35.215                             : :第 24 章
  201. 01:18:52.227                             : :第 25 章
  202. 01:22:48.296                             : :第 26 章
  203. 01:24:55.340                             : :第 27 章
  204. 01:28:25.216                             : :第 28 章
  205. 01:33:18.551                             : :第 29 章
  206. 01:36:08.762                             : :第 30 章
  207. 01:41:54.691                             : :第 31 章
  208. 01:45:23.442                             : :第 32 章
  209. 01:48:16.489                             : :第 33 章
  210. 01:51:43.655                             : :第 34 章
  211. 01:54:43.668                             : :第 35 章
  212. 01:56:51.504                             : :第 36 章





此处一般会放置磁力链或种子下载链接,不过此链接需要注册会员才能看到,点击“立即注册”
磁力链下载【下载链接仅对注册会员开放,登陆后可见】
BT9527电影天堂 1、BT9527电影天堂提供的BT文件均来源于互联网抓取,只供网友学习交流、技术提升使用。
2、我们遵守BitTorrent点对点协议原则,任何版权问题请联系原资源发布商,我们不处理任何版权纠纷,谢谢!如有争议请联系邮箱:BT9527#hotmail.com(#换成@)
3、如果您发现某页面或地址有错误,请联系站长邮箱BT9527#hotmail.com(#换成@),我们会尽快处理。您的热心是对BT9527电影天堂最大的支持。
4、本站建议去正规影院观看电影以支持电影行业发展。
最新回复 (0)

你可以在 登录 or 注册 后,对此帖发表评论!

返回
发新帖