灰姑娘[中文字幕].Cinderella.2021.BluRay.1080p.DTS-HDMA5.1.x265.10bit-CTRLHD 6.47GB

版主小s 21天前 24

✔资源类型:暂未分类   ✔电影年份:2021   ✔电影地区:欧美   ✔电影分类:喜剧

◎译  名 灰姑娘
◎片  名 Cinderella
◎年  代 2021
◎产  地 英国 / 美国
◎类  别 喜剧 / 爱情 / 歌舞 / 奇幻
◎语  言 英语
◎上映日期 2021-09-03(美国网络)
◎IMDb链接 https://www.imdb.com/title/tt10155932/
◎豆瓣评分 5.4/10 (3941人评价)
◎豆瓣链接 https://movie.douban.com/subject/33404941/
◎片  长 113分钟
◎导  演 凯·加农 Kay Cannon (id:1324071)
◎编  剧 凯·加农 Kay Cannon (id:1324071)
       詹姆斯·柯登 James Corden (id:1017966)
◎演  员 卡米拉·卡贝欧 Camila Cabello (id:1411733)
       尼古拉斯·加利齐纳 Nicholas Galitzine (id:1365256)
       伊迪娜·门泽尔 Idina Menzel (id:1116746)
       皮尔斯·布鲁斯南 Pierce Brosnan (id:1031219)
       明妮·德里弗 Minnie Driver (id:1004602)
       比利·波特 Billy Porter (id:1050593)
       麦迪·贝里欧 Maddie Baillio (id:1406688)
       夏洛特·斯宾塞 Charlotte Spencer (id:1343846)
       詹姆斯·柯登 James Corden (id:1017966)
       Tallulah Greive Tallulah Greive (id:1450691)
       James Acaster James Acaster (id:1388648)
       罗梅什·兰加纳坦 Romesh Ranganathan (id:1353444)
       Rob Beckett Rob Beckett (id:1388501)
       本·贝利·史密斯 Ben Bailey Smith (id:1444755)
       弗拉·菲 Fra Fee (id:1429389)
       Beverley Knight Beverley Knight (id:1174350)
       Natasha Patel Natasha Patel (id:1450701)
       妮基塔·查达哈 Nikkita Chadha (id:1449234)
       约翰·艾伦·罗伯茨 John Alan Roberts (id:1442711)
        Danny Salomon (id:1244290)
       艾伦·米罗伊尼克 Ellen Mirojnick (id:1010099)

◎简  介
  根据消息指出,卡妹版本的《灰姑娘》是一部具有现代性和女权主义的新式公主电影,据说加入了Me Too运动的隐喻内容,表达女性的自主和自我,也同时将充满性别平等的意义。
  1. ##### MediaInfo ######
  2. General
  3. Unique ID                                : 14368412917498214768744372787125215692 (0xACF417387EF023FF97A6026A4D0E1CC)
  4. Complete name                            : Cinderella.2021.BluRay.1080p.DTS-HDMA5.1.x265.10bit-CTRLHD.mkv
  5. Format                                   : Matroska
  6. Format version                           : Version 4
  7. File size                                : 6.47 GiB
  8. Duration                                 : 1 h 52 min
  9. Overall bit rate mode                    : Variable
  10. Overall bit rate                         : 8 221 kb/s
  11. Encoded date                             : UTC 2022-06-11 13:06:06
  12. Writing application                      : mkvmerge v62.0.0 ('Apollo') 64-bit
  13. Writing library                          : libebml v1.4.2 + libmatroska v1.6.4
  14. Video
  15. ID                                       : 1
  16. Format                                   : HEVC
  17. Format/Info                              : High Efficiency Video Coding
  18. Format profile                           : Main 10@L4@Main
  19. Codec ID                                 : V_MPEGH/ISO/HEVC
  20. Duration                                 : 1 h 52 min
  21. Bit rate                                 : 5 902 kb/s
  22. Width                                    : 1 920 pixels
  23. Height                                   : 804 pixels
  24. Display aspect ratio                     : 2.40:1
  25. Frame rate mode                          : Constant
  26. Frame rate                               : 23.976 (23976/1000/53354) FPS
  27. Color space                              : YUV
  28. Chroma subsampling                       : 4:2:0
  29. Bit depth                                : 10 bits
  30. Bits/(Pixel*Frame)                       : 0.159
  31. Stream size                              : 4.64 GiB (72%)
  32. Writing library                          : x265 3.5+10-82786fccc:[Windows][MSVC 1929][64 bit] 10bit
  33. Encoding settings                        : cpuid=533541111039 / frame-threads=5 / numa-pools=36,36 / wpp / no-pmode / no-pme / no-psnr / no-ssim / log-level=2 / input-csp=1 / input-res=1920x804 / interlace=0 / total-frames=0 / level-idc=0 / high-tier=1 / uhd-bd=0 / ref=6 / no-allow-non-conformance / repeat-headers / annexb / no-aud / no-eob / no-eos / no-hrd / info / hash=0 / no-temporal-layers / no-open-gop / min-keyint=23 / keyint=250 / gop-lookahead=0 / bframes=8 / b-adapt=2 / b-pyramid / bframe-bias=0 / rc-lookahead=24 / lookahead-slices=5 / NTMzNTQ=uuDQuD2mJt9fsCf / scenecut=40 / hist-scenecut=0 / radl=0 / no-splice / no-intra-refresh / ctu=64 / min-cu-size=8 / no-rect / no-amp / max-tu-size=32 / tu-inter-depth=1 / tu-intra-depth=1 / limit-tu=0 / rdoq-level=0 / dynamic-rd=0.00 / no-ssim-rd / signhide / no-tskip / nr-intra=0 / nr-inter=0 / no-constrained-intra / no-strong-intra-smoothing / max-merge=3 / limit-refs=1 / no-limit-modes / me=2 / subme=7 / merange=48 / temporal-mvp / no-frame-dup / no-hme / weightp / weightb / no-analyze-src-pics / deblock=0:0 / sao / no-sao-non-deblock / rd=4 / selective-sao=4 / early-skip / rskip / no-fast-intra / no-tskip-fast / no-cu-lossless / b-intra / no-splitrd-skip / rdpenalty=0 / psy-rd=2.00 / psy-rdoq=0.00 / no-rd-refine / no-lossless / cbqpoffs=0 / crqpoffs=0 / rc=crf / crf=16.0 / qcomp=0.60 / qpstep=4 / stats-write=0 / stats-read=0 / ipratio=1.40 / pbratio=1.30 / aq-mode=3 / aq-strength=1.00 / cutree / zone-count=0 / no-strict-cbr / qg-size=32 / no-rc-grain / qpmax=69 / qpmin=0 / no-const-vbv / sar=0 / overscan=0 / videoformat=5 / range=0 / colorprim=2 / transfer=2 / colormatrix=2 / chromaloc=0 / display-window=0 / cll=0,0 / min-luma=0 / max-luma=1023 / log2-max-poc-lsb=8 / vui-timing-info / vui-hrd-info / slices=1 / no-opt-qp-pps / no-opt-ref-list-length-pps / no-multi-pass-opt-rps / scenecut-bias=0.05 / hist-threshold=0.03 / no-opt-cu-delta-qp / aq-motion / no-hdr10 / no-hdr10-opt / no-dhdr10-opt / no-idr-recovery-sei / analysis-reuse-level=0 / analysis-save-reuse-level=0 / analysis-load-reuse-level=0 / scale-factor=0 / refine-intra=0 / refine-inter=0 / refine-mv=1 / refine-ctu-distortion=0 / no-limit-sao / ctu-info=0 / no-lowpass-dct / refine-analysis-type=0 / copy-pic=1 / max-ausize-factor=1.0 / no-dynamic-refine / no-single-sei / no-hevc-aq / no-svt / no-field / qp-adaptation-range=1.00 / scenecut-aware-qp=0conformance-window-offsets / right=0 / bottom=0 / NTMzNTQ= / decoder-max-rate=0 / no-vbv-live-multi-pass
  34. Default                                  : Yes
  35. Forced                                   : No
  36. Audio
  37. ID                                       : 2
  38. Format                                   : DTS XLL
  39. Format/Info                              : Digital Theater Systems
  40. Commercial name                          : DTS-HD Master Audio
  41. Codec ID                                 : A_DTS
  42. Duration                                 : 1 h 52 min
  43. Bit rate mode                            : Variable
  44. Bit rate                                 : 2 243 kb/s
  45. Channel(s)                               : 6 channels
  46. Channel layout                           : C L R Ls Rs LFE
  47. Sampling rate                            : 48.0 kHz
  48. Frame rate                               : 93.750 FPS (512 SPF)
  49. Bit depth                                : 16 bits
  50. Compression mode                         : Lossless
  51. Stream size                              : 1.76 GiB (27%)
  52. Language                                 : English
  53. Default                                  : Yes
  54. Forced                                   : No
  55. Text #1
  56. ID                                       : 3
  57. Format                                   : PGS
  58. Muxing mode                              : zlib
  59. Codec ID                                 : S_HDMV/PGS
  60. Codec ID/Info                            : Picture based subtitle format used on BDs/HD-DVDs
  61. Duration                                 : 1 h 51 min
  62. Bit rate                                 : 33.3 kb/s
  63. Count of elements                        : 3636
  64. Stream size                              : 26.7 MiB (0%)
  65. Language                                 : Chinese
  66. Default                                  : Yes
  67. Forced                                   : No
  68. Text #2
  69. ID                                       : 4
  70. Format                                   : PGS
  71. Muxing mode                              : zlib
  72. Codec ID                                 : S_HDMV/PGS
  73. Codec ID/Info                            : Picture based subtitle format used on BDs/HD-DVDs
  74. Duration                                 : 1 h 51 min
  75. Bit rate                                 : 35.0 kb/s
  76. Count of elements                        : 3620
  77. Stream size                              : 28.0 MiB (0%)
  78. Language                                 : Chinese
  79. Default                                  : Yes
  80. Forced                                   : No
  81. Text #3
  82. ID                                       : 5
  83. Format                                   : PGS
  84. Muxing mode                              : zlib
  85. Codec ID                                 : S_HDMV/PGS
  86. Codec ID/Info                            : Picture based subtitle format used on BDs/HD-DVDs
  87. Duration                                 : 1 h 51 min
  88. Bit rate                                 : 46.5 kb/s
  89. Count of elements                        : 4065
  90. Stream size                              : 37.3 MiB (1%)
  91. Language                                 : English
  92. Default                                  : Yes
  93. Forced                                   : No
  94. Menu
  95. 00:00:00.000                             : en:第 01 章
  96. 00:06:16.710                             : en:第 02 章
  97. 00:12:16.235                             : en:第 03 章
  98. 00:17:26.254                             : en:第 04 章
  99. 00:21:36.879                             : en:第 05 章
  100. 00:27:17.553                             : en:第 06 章
  101. 00:33:24.753                             : en:第 07 章
  102. 00:38:40.568                             : en:第 08 章
  103. 00:44:40.177                             : en:第 09 章
  104. 00:50:51.340                             : en:第 10 章
  105. 00:58:43.061                             : en:第 11 章
  106. 01:07:51.609                             : en:第 12 章
  107. 01:15:59.513                             : en:第 13 章
  108. 01:23:11.570                             : en:第 14 章
  109. 01:29:49.009                             : en:第 15 章
  110. 01:38:29.570                             : en:第 16 章





此处一般会放置磁力链或种子下载链接,不过此链接需要注册会员才能看到,点击“立即注册”
磁力链下载【下载链接仅对注册会员开放,登陆后可见】
BT9527电影天堂 1、BT9527电影天堂提供的BT文件均来源于互联网抓取,只供网友学习交流、技术提升使用。
2、我们遵守BitTorrent点对点协议原则,任何版权问题请联系原资源发布商,我们不处理任何版权纠纷,谢谢!如有争议请联系邮箱:BT9527#hotmail.com(#换成@)
3、如果您发现某页面或地址有错误,请联系站长邮箱BT9527#hotmail.com(#换成@),我们会尽快处理。您的热心是对BT9527电影天堂最大的支持。
4、本站建议去正规影院观看电影以支持电影行业发展。
最新回复 (0)

你可以在 登录 or 注册 后,对此帖发表评论!

返回
发新帖