象人[中英字幕].The.Elephant.Man.1980.BluRay.1080p.x265.10bit-MiniHD 7.09GB

版主小s 3月前 215

✔资源类型:暂未分类   ✔电影年份:更 早   ✔电影地区:欧美   ✔电影分类:剧情

◎译  名 象人
◎片  名 The Elephant Man
◎年  代 1980
◎产  地 美国
◎类  别 剧情 / 传记
◎语  言 英语
◎上映日期 1980-10-10(美国)
◎IMDb链接 https://www.imdb.com/title/tt0080678/
◎豆瓣评分 8.3/10 (26903人评价)
◎豆瓣链接 https://movie.douban.com/subject/1293200/
◎片  长 124分钟
◎导  演 大卫·林奇 David Lynch (id:1054578)
◎编  剧 克里斯托弗·德沃雷 Christopher De Vore (id:1282092)
       埃里克·伯格恩 Eric Bergren (id:1278455)
       大卫·林奇 David Lynch (id:1054578)
       弗雷德里克·特里夫斯 Sir Frederick Treves (id:1006402)
       阿什利·蒙塔古 Ashley Montagu (id:1011905)
◎演  员 安东尼·霍普金斯 Anthony Hopkins (id:1054434)
       约翰·赫特 John Hurt (id:1004587)
       安妮·班克罗夫特 Anne Bancroft (id:1049606)
       约翰·吉尔古德 John Gielgud (id:1000249)
       温蒂·希勒 Wendy Hiller (id:1027124)
       弗雷迪·琼斯 Freddie Jones (id:1049921)
       迈克尔·埃尔菲克 Michael Elphick (id:1050260)
       汉娜·高登 Hannah Gordon (id:1096521)
       海伦·瑞安 Helen Ryan (id:1140134)
       约翰·斯坦丁 John Standing (id:1159827)
       德克斯特·弗莱彻 Dexter Fletcher (id:1007028)
       莱斯莉·邓禄普 Lesley Dunlop (id:1082222)
       菲比·尼克尔斯 Phoebe Nicholls (id:1328486)
       凯思琳·拜荣 Kathleen Byron (id:1014300)
       威廉姆·摩根·谢泼德 William Morgan Sheppard (id:1144898)
       大卫·莱尔 David Ryall (id:1143241)
       宝林·奎克 Pauline Quirke (id:1143185)
       肯尼·贝克 Kenny Baker (id:1058729)
       派翠西亚·霍吉 Patricia Hodge (id:1028021)
       Adam Caine Adam Caine (id:1078900)
       埃里克·伯格恩 Eric Bergren (id:1278455)
       迪尔德丽·科斯特洛 Deirdre Costello (id:1281209)
       克里斯托弗·德沃雷 Christopher De Vore (id:1282092)
       乔纳森·桑格 Jonathan Sanger (id:1296660)
       约翰·莫里斯 John Morris (id:1126913)
       安妮·考特斯 Anne V. Coates (id:1037289)
       斯图尔特·克莱格 Stuart Craig (id:1068958)
       罗伯特·卡特莱特 Robert Cartwright (id:1280203)
       休·谢夫 Hugh Scaife (id:1296797)
       帕特丽夏·诺里斯 Patricia Norris (id:1293286)
       克里斯托弗·塔克 Christopher Tucker (id:1299597)
       瓦利·施内德曼 Wally Schneiderman (id:1296928)

◎简  介
  象人(约翰?赫特 John Hurt 饰)是一个天生的畸形症患者,他的脸长得就像大象的脸,因此而得名。象人一直被利欲昏心的马戏团老板利用,带到世界各地去巡回演出,受尽了非人的虐待。象人所经受的遭遇社会名流们都会感到不可思议,然而乐观坚强的象人却承担了下来。                                    
                                直到有一次,象人遇上了年轻的英国医生(安东尼?霍普金斯 Anthony Hopkins 饰),出于怜悯和医生的操守,他与马戏团老板签订了“领养”协议后,将象人带回了医院作研究。在医院里,象人重新感受到了人间的温暖,而医生也在和象人的交往中结下了深深的友谊,他已经舍不得这位“上帝的弃儿”。但利欲昏心的马戏团老板带人又将象人抢了回去,象人的新生活是否就此终结?

◎获奖情况 (共8项)
  第53届奥斯卡金像奖 (1981)
  最佳影片(提名)
   └──乔纳森·桑格 (id:1296660)
  最佳导演(提名)
   └──大卫·林奇 (id:1054578)
  最佳男主角(提名)
   └──约翰·赫特 (id:1004587)
  最佳改编剧本(提名)
  最佳剪辑(提名)
   └──安妮·考特斯 (id:1037289)
  最佳艺术指导(提名)
  最佳服装设计(提名)
   └──帕特丽夏·诺里斯 (id:1293286)
  最佳原创配乐(提名)
   └──约翰·莫里斯 (id:1126913)

  1. ##### MediaInfo ######
  2. General
  3. Unique ID                                : 184792529059613778399333950496532782226 (0x8B05BF1C08627E0C94332A17C282DC92)
  4. Complete name                            : The.Elephant.Man.1980.BluRay.1080p.x265.10bit-MiniHD.mkv
  5. Format                                   : Matroska
  6. Format version                           : Version 4
  7. File size                                : 7.08 GiB
  8. Duration                                 : 2 h 3 min
  9. Overall bit rate                         : 8 202 kb/s
  10. Encoded date                             : UTC 2017-08-24 05:54:40
  11. Writing application                      : mkvmerge v11.0.0 ('Alive') 64bit
  12. Writing library                          : libebml v1.3.4 + libmatroska v1.4.5
  13. Video
  14. ID                                       : 1
  15. Format                                   : HEVC
  16. Format/Info                              : High Efficiency Video Coding
  17. Codec ID                                 : V_MPEGH/ISO/HEVC
  18. Duration                                 : 2 h 3 min
  19. Bit rate                                 : 7 398 kb/s
  20. Width                                    : 1 914 pixels
  21. Height                                   : 800 pixels
  22. Display aspect ratio                     : 2.40:1
  23. Frame rate mode                          : Constant
  24. Frame rate                               : 24.000 FPS
  25. Bits/(Pixel*Frame)                       : 0.201
  26. Stream size                              : 6.39 GiB (90%)
  27. Default                                  : Yes
  28. Forced                                   : No
  29. Audio
  30. ID                                       : 2
  31. Format                                   : AC-3
  32. Format/Info                              : Audio Coding 3
  33. Commercial name                          : Dolby Digital
  34. Codec ID                                 : A_AC3
  35. Duration                                 : 2 h 3 min
  36. Bit rate mode                            : Constant
  37. Bit rate                                 : 640 kb/s
  38. Channel(s)                               : 6 channels
  39. Channel layout                           : L R C LFE Ls Rs
  40. Sampling rate                            : 48.0 kHz
  41. Frame rate                               : 31.250 FPS (1536 SPF)
  42. Compression mode                         : Lossy
  43. Stream size                              : 566 MiB (8%)
  44. Language                                 : English
  45. Service kind                             : Complete Main
  46. Default                                  : Yes
  47. Forced                                   : No
  48. Text #1
  49. ID                                       : 3
  50. Format                                   : PGS
  51. Muxing mode                              : zlib
  52. Codec ID                                 : S_HDMV/PGS
  53. Codec ID/Info                            : Picture based subtitle format used on BDs/HD-DVDs
  54. Language                                 : English
  55. Default                                  : Yes
  56. Forced                                   : No
  57. Text #2
  58. ID                                       : 4
  59. Format                                   : PGS
  60. Muxing mode                              : zlib
  61. Codec ID                                 : S_HDMV/PGS
  62. Codec ID/Info                            : Picture based subtitle format used on BDs/HD-DVDs
  63. Language                                 : Chinese
  64. Default                                  : No
  65. Forced                                   : No
  66. Text #3
  67. ID                                       : 5
  68. Format                                   : PGS
  69. Muxing mode                              : zlib
  70. Codec ID                                 : S_HDMV/PGS
  71. Codec ID/Info                            : Picture based subtitle format used on BDs/HD-DVDs
  72. Language                                 : Chinese
  73. Default                                  : No
  74. Forced                                   : No
  75. Menu
  76. 00:00:00.000                             : en:Chapter 01
  77. 00:08:55.750                             : en:Chapter 02
  78. 00:21:23.416                             : en:Chapter 03
  79. 00:29:06.500                             : en:Chapter 04
  80. 00:42:03.708                             : en:Chapter 05
  81. 00:52:28.375                             : en:Chapter 06
  82. 01:02:39.583                             : en:Chapter 07
  83. 01:10:25.000                             : en:Chapter 08
  84. 01:22:35.416                             : en:Chapter 09
  85. 01:35:21.416                             : en:Chapter 10
  86. 01:49:38.250                             : en:Chapter 11
  87. 02:00:57.416                             : en:Chapter 12





此处一般会放置磁力链或种子下载链接,不过此链接需要注册会员才能看到,点击“立即注册”
磁力链下载【下载链接仅对注册会员开放,登陆后可见】
BT9527电影天堂 1、BT9527电影天堂提供的BT文件均来源于互联网抓取,只供网友学习交流、技术提升使用。
2、我们遵守BitTorrent点对点协议原则,任何版权问题请联系原资源发布商,我们不处理任何版权纠纷,谢谢!如有争议请联系邮箱:BT9527#hotmail.com(#换成@)
3、如果您发现某页面或地址有错误,请联系站长邮箱BT9527#hotmail.com(#换成@),我们会尽快处理。您的热心是对BT9527电影天堂最大的支持。
4、本站建议去正规影院观看电影以支持电影行业发展。
最新回复 (0)

你可以在 登录 or 注册 后,对此帖发表评论!

返回
发新帖