赌城风云[国英多音轨/中英字幕].Casino.1995.BluRay.1080p.x265.10bit.2Audio-MiniHD 9.47GB

版主小s 21天前 26

✔资源类型:暂未分类   ✔电影年份:更 早   ✔电影地区:欧美   ✔电影分类:剧情

◎译  名 赌城风云 / 赌国风云(台) / 赌场
◎片  名 Casino
◎年  代 1995
◎产  地 美国 / 法国
◎类  别 剧情 / 传记 / 犯罪
◎语  言 英语 / 法语
◎上映日期 1995-11-22
◎IMDb链接 https://www.imdb.com/title/tt0112641/
◎豆瓣评分 8.3/10 (40023人评价)
◎豆瓣链接 https://movie.douban.com/subject/1299799/
◎片  长 178 分钟
◎导  演 马丁·斯科塞斯 Martin Scorsese (id:1054425)
◎编  剧 尼古拉斯·派勒吉 Nicholas Pileggi (id:1032455)
       马丁·斯科塞斯 Martin Scorsese (id:1054425)
◎演  员 罗伯特·德尼罗 Robert De Niro (id:1054445)
       莎朗·斯通 Sharon Stone (id:1031822)
       乔·佩西 Joe Pesci (id:1004598)
       詹姆斯·伍兹 James Woods (id:1002689)
       唐·里克斯 Don Rickles (id:1044706)
       阿兰·金 Alan King (id:1108414)
       凯文·波拉克 Kevin Pollak (id:1041150)
       L·Q·琼斯 L.Q. Jones (id:1025296)
       迪克·史莫勒斯 Dick Smothers (id:1152975)
       弗兰克·文森特 Frank Vincent (id:1150295)
       约翰·布鲁姆 John Bloom (id:1067066)
       帕斯夸尔·卡哈诺 Pasquale Cajano (id:1070973)
       Vinny Vella Vinny Vella (id:1427517)
       弗兰基·阿瓦隆 Frankie Avalon (id:1049780)
       史蒂夫·艾伦 Steve Allen (id:1055914)
       杰尼·米多斯 Jayne Meadows (id:1055484)
       Jerry Vale Jerry Vale (id:1158885)
       凯瑟琳·斯科塞斯 Catherine Scorsese (id:1000607)
       奥斯卡·古德曼 Oscar Goodman (id:1095644)
       Cathy Scorsese Cathy Scorsese (id:1143091)
       保罗·赫尔曼 Paul Herman (id:1000541)
       Millicent Sheridan Millicent Sheridan (id:1147295)
       松久幸信 Nobu Matsuhisa (id:1319204)
       Ronald Maccone Ronald Maccone (id:1117851)
       约瑟夫·莱迪 Joseph P. Reidy (id:1295409)
       斯图尔特·尼斯贝特 Stuart Nisbet (id:1135422)
       汤米·德维托 Tommy DeVito (id:1085066)
       弗兰克·阿多尼斯 Frank Adonis (id:1041310)
       克雷格·文森特 Craig Vincent (id:1019358)
       David Varriale David Varriale (id:1148794)
       Bret McCormick Bret McCormick (id:1029630)
       理查德·雷西尔 Richard Riehle (id:1142526)
       史蒂夫·斯基里帕 Steve Schirripa (id:1296893)
       约瑟夫·莱迪 Joseph P. Reidy (id:1295409)
       Barbara De Fina Barbara De Fina (id:1281998)
       罗伯特·理查森 Robert Richardson (id:1050019)
       塞尔玛·斯昆梅克 Thelma Schoonmaker (id:1014210)
       埃伦·路易斯 Ellen Lewis (id:1289949)
       Jack G. Taylor Jr. Jack G. Taylor Jr. (id:1298967)
       里克·辛普森 Rick Simpson (id:1297667)
       丽塔·赖克 Rita Ryack (id:1296372)
       保罗·勒布朗 Paul LeBlanc (id:1289615)
       肯·迪亚兹 Ken Diaz (id:1282388)
       乔-安妮·史密斯-奥杰尔 Jo-Anne Smith-Ojeil (id:1297953)
       Mona Orr Mona Orr (id:1293642)
       Wayne Toth Wayne Toth (id:1299447)
       艾丽西娅·M·特里皮 Alicia M. Tripi (id:1299524)
       Peter Tothpal Peter Tothpal (id:1276622)
       勒内·达希尔·克比 René Dashiell Kerby (id:1281837)
       约瑟夫·莱迪 Joseph P. Reidy (id:1295409)
       克里斯托弗·埃文斯 Christopher Evans (id:1283336)
       克莱格·巴朗 Craig Barron (id:1277981)

◎简  介
  电影《赌城风云》是由大导演马丁·斯科塞斯与老拍档罗伯特·德尼罗的第八度合作。萨姆·“埃斯”·罗思坦(罗伯特·德尼罗 Robert De Niro 饰)抱着“赌博是一桩需要认真对待的事业”这个信念经营这一家拉斯维加斯的赌场。这个信念使他的赌场生意兴隆,而也让他成为富四一方的大亨。但是自从他娶了妓女出身的金姬(莎朗·斯通 Sharon Stone 饰)后,一切都发生了改变。金姬是个贪得无厌,嗜好酒和毒品的美丽女人,对前男友旧情不忘甚至给他送钱;黑社会老大派来保护萨姆的尼基(乔·佩西 Joe Pesci 饰)总是触犯法律,被警方禁止踏足赌场,还不量力要当老板;萨姆开除了不负责任的雇员却得罪了当地的官员;更糟糕的是,萨姆和昔日的合作伙伴间的摩擦加剧。所有的一切,都使萨姆心神不宁……

◎获奖情况 (共3项)
  第68届奥斯卡金像奖 (1996)
  最佳女主角(提名)
   └──莎朗·斯通 (id:1031822)

  第53届金球奖 (1996)
  电影类 最佳导演(提名)
   └──马丁·斯科塞斯 (id:1054425)
  电影类 剧情片最佳女主角
   └──莎朗·斯通 (id:1031822)

  1. ##### MediaInfo ######
  2. General
  3. Unique ID                                : 224721398451383015146747738665531325669 (0xA90FC45CE0D401D78696DB926139BCE5)
  4. Complete name                            : Casino.1995.BluRay.1080p.x265.10bit.2Audio-MiniHD.mkv
  5. Format                                   : Matroska
  6. Format version                           : Version 4
  7. File size                                : 9.47 GiB
  8. Duration                                 : 2 h 58 min
  9. Overall bit rate                         : 7 603 kb/s
  10. Encoded date                             : UTC 2017-07-20 02:11:50
  11. Writing application                      : mkvmerge v11.0.0 ('Alive') 64bit
  12. Writing library                          : libebml v1.3.4 + libmatroska v1.4.5
  13. Video
  14. ID                                       : 1
  15. Format                                   : HEVC
  16. Format/Info                              : High Efficiency Video Coding
  17. Codec ID                                 : V_MPEGH/ISO/HEVC
  18. Duration                                 : 2 h 58 min
  19. Bit rate                                 : 6 734 kb/s
  20. Width                                    : 1 920 pixels
  21. Height                                   : 816 pixels
  22. Display aspect ratio                     : 2.35:1
  23. Frame rate mode                          : Constant
  24. Frame rate                               : 23.976 (24000/1001/53354) FPS
  25. Bits/(Pixel*Frame)                       : 0.179
  26. Stream size                              : 8.39 GiB (89%)
  27. Default                                  : Yes
  28. Forced                                   : No
  29. Audio #1
  30. ID                                       : 2
  31. Format                                   : AC-3
  32. Format/Info                              : Audio Coding 3
  33. Commercial name                          : Dolby Digital
  34. Codec ID                                 : A_AC3
  35. Duration                                 : 2 h 58 min
  36. Bit rate mode                            : Constant
  37. Bit rate                                 : 640 kb/s
  38. Channel(s)                               : 6 channels
  39. Channel layout                           : L R C LFE Ls Rs
  40. Sampling rate                            : 48.0 kHz
  41. Frame rate                               : 31.250 FPS (1536 SPF)
  42. Compression mode                         : Lossy
  43. Stream size                              : 816 MiB (8%)
  44. Language                                 : English
  45. Service kind                             : Complete Main
  46. Default                                  : Yes
  47. Forced                                   : No
  48. Audio #2
  49. ID                                       : 3
  50. Format                                   : AC-3
  51. Format/Info                              : Audio Coding 3
  52. Commercial name                          : Dolby Digital
  53. Codec ID                                 : A_AC3
  54. Duration                                 : 2 h 58 min
  55. Bit rate mode                            : Constant
  56. Bit rate                                 : 192 kb/s
  57. Channel(s)                               : 2 channels
  58. Channel layout                           : L R
  59. Sampling rate                            : 48.0 kHz
  60. Frame rate                               : 31.250 FPS (1536 SPF)
  61. Compression mode                         : Lossy
  62. Stream size                              : 245 MiB (3%)
  63. Language                                 : Chinese
  64. Service kind                             : Complete Main
  65. Default                                  : No
  66. Forced                                   : No
  67. Text #1
  68. ID                                       : 4
  69. Format                                   : PGS
  70. Muxing mode                              : zlib
  71. Codec ID                                 : S_HDMV/PGS
  72. Codec ID/Info                            : Picture based subtitle format used on BDs/HD-DVDs
  73. Duration                                 : 2 h 55 min
  74. Bit rate                                 : 17.9 kb/s
  75. Count of elements                        : 7286
  76. Stream size                              : 22.5 MiB (0%)
  77. Language                                 : English
  78. Default                                  : Yes
  79. Forced                                   : No
  80. Text #2
  81. ID                                       : 5
  82. Format                                   : PGS
  83. Muxing mode                              : zlib
  84. Codec ID                                 : S_HDMV/PGS
  85. Codec ID/Info                            : Picture based subtitle format used on BDs/HD-DVDs
  86. Duration                                 : 2 h 51 min
  87. Bit rate                                 : 18.1 kb/s
  88. Count of elements                        : 5532
  89. Stream size                              : 22.2 MiB (0%)
  90. Language                                 : Chinese
  91. Default                                  : No
  92. Forced                                   : No
  93. Menu
  94. 00:00:00.000                             : en:Chapter 01
  95. 00:04:55.628                             : en:Chapter 02
  96. 00:21:58.233                             : en:Chapter 03
  97. 00:27:49.584                             : en:Chapter 04
  98. 00:33:46.733                             : en:Chapter 05
  99. 00:38:57.168                             : en:Chapter 06
  100. 00:58:23.124                             : en:Chapter 07
  101. 01:06:11.300                             : en:Chapter 08
  102. 01:26:24.637                             : en:Chapter 09
  103. 01:31:49.754                             : en:Chapter 10
  104. 02:00:29.513                             : en:Chapter 11
  105. 02:14:10.375                             : en:Chapter 12
  106. 02:28:31.569                             : en:Chapter 13
  107. 02:39:55.794                             : en:Chapter 14
  108. 02:46:56.464                             : en:Chapter 15
  109. 02:50:12.118                             : en:Chapter 16





此处一般会放置磁力链或种子下载链接,不过此链接需要注册会员才能看到,点击“立即注册”
磁力链下载【下载链接仅对注册会员开放,登陆后可见】
BT9527电影天堂 1、BT9527电影天堂提供的BT文件均来源于互联网抓取,只供网友学习交流、技术提升使用。
2、我们遵守BitTorrent点对点协议原则,任何版权问题请联系原资源发布商,我们不处理任何版权纠纷,谢谢!如有争议请联系邮箱:BT9527#hotmail.com(#换成@)
3、如果您发现某页面或地址有错误,请联系站长邮箱BT9527#hotmail.com(#换成@),我们会尽快处理。您的热心是对BT9527电影天堂最大的支持。
4、本站建议去正规影院观看电影以支持电影行业发展。
最新回复 (0)

你可以在 登录 or 注册 后,对此帖发表评论!

返回
发新帖