赎罪[国英多音轨/繁英字幕].Atonement.2007.BluRay.1080p.x265.10bit.2Audio-MiniHD 6.62GB

版主小s 15天前 23

✔资源类型:暂未分类   ✔电影年份:2007   ✔电影地区:欧美   ✔电影分类:剧情

◎译  名 赎罪 / 爱·诱·罪(港) / 救赎
◎片  名 Atonement
◎年  代 2007
◎产  地 英国 / 法国
◎类  别 剧情 / 爱情 / 悬疑 / 战争
◎语  言 英语 / 法语
◎上映日期 2008-02-22(中国大陆) / 2007-09-07(英国)
◎IMDb链接 https://www.imdb.com/title/tt0783233/
◎豆瓣评分 8.5/10 (330470人评价)
◎豆瓣链接 https://movie.douban.com/subject/1950148/
◎片  长 123分钟
◎导  演 乔·赖特 Joe Wright (id:1275041)
◎编  剧 克里斯托弗·汉普顿 Christopher Hampton (id:1005118)
       伊恩·麦克尤恩 Ian McEwan (id:1018405)
◎演  员 詹姆斯·麦卡沃伊 James McAvoy (id:1006958)
       西尔莎·罗南 Saoirse Ronan (id:1022004)
       凯拉·奈特莉 Keira Knightley (id:1054448)
       本尼迪克特·康伯巴奇 Benedict Cumberbatch (id:1009405)
       布兰达·布莱斯 Brenda Blethyn (id:1032036)
       哈丽特·瓦尔特 Harriet Walter (id:1162870)
       朱诺·坦普尔 Juno Temple (id:1274500)
       阿尔菲·艾伦 Alfie Allen (id:1049903)
       帕特里克·肯尼迪 Patrick Kennedy (id:1206488)
       彼得·怀特 Peter Wight (id:1319601)
       瓦妮莎·雷德格雷夫 Vanessa Redgrave (id:1004576)
       萝玛拉·嘉瑞 Romola Garai (id:1022633)
       艾丽丝·奥尔尤因 Alice Orr-Ewing (id:1347947)
       侬索·阿诺斯 Nonso Anozie (id:1315348)
       布隆森·韦伯 Bronson Webb (id:1032080)
       杰米·比米什 Jamie Beamish (id:1190547)
       约翰尼·哈里斯 Johnny Harris (id:1314880)
       尼尔·马斯克尔 Neil Maskell (id:1339918)
       杰瑞米·雷乃 Jérémie Renier (id:1014162)
       吉娜·麦基 Gina McKee (id:1000253)
       托比亚斯·门基斯 Tobias Menzies (id:1123265)
       安东尼·明格拉 Anthony Minghella (id:1047995)
       丹尼尔·梅斯 Daniel Mays (id:1000257)
       伊恩 博纳 Ian Bonar (id:1329189)
       奥利维亚·格兰特 Olivia Grant (id:1337594)
       伊恩·麦克尤恩 Ian McEwan (id:1018405)
       达里奥·马里安奈利 Dario Marianelli (id:1018392)
       西穆斯·迈克加维 Seamus McGarvey (id:1009786)
       保罗·托西尔 Paul Tothill (id:1299433)
       吉娜·杰 Jina Jay (id:1395105)
       杰奎琳·杜兰 Jacqueline Durran (id:1282857)

◎简  介
  1935年夏天,来自一个宽裕的英国小康家庭的13岁的少女布里奥妮(斯奥里兹?罗南 饰)刚刚开始尝试写作,想象力丰富。一天,她暗中发现仆人的儿子——罗比?特纳(詹姆斯?迈克沃伊 饰)和她姐姐塞西利亚(凯特?奈特莉 饰)之间有暧昧关系,而且发现他给她写了一封充满情色意味的情书。布里奥妮丰富的想象力虚构着各种可怕的事情,浮想联翩。当她的表姐罗拉被强奸后,布里奥妮相当肯定她看到是罗比做的,这次指证使罗比蒙冤入狱,留下伤心欲绝的塞西利亚。                                    
                                第二次世界大战爆发了,出狱后的罗比和塞西利亚都投入了保卫祖国的战斗,布利奥妮放弃到剑桥升学成为一名军队医务人员。没有人能理解她的做法,只有她知道她怀揣着巨大的秘密和自责。她鼓起勇气,想把这秘密解开,能真正赎罪和得到宽恕。然而,世事幻变,出乎布利奥妮的预算。

◎获奖情况 (共32项)
  第80届奥斯卡金像奖 (2008)
  最佳影片(提名)
  最佳女配角(提名)
   └──西尔莎·罗南 (id:1022004)
  最佳改编剧本(提名)
   └──克里斯托弗·汉普顿 (id:1005118)
  最佳摄影(提名)
   └──西穆斯·迈克加维 (id:1009786)
  最佳艺术指导(提名)
  最佳服装设计(提名)
   └──杰奎琳·杜兰 (id:1282857)
  最佳原创配乐
   └──达里奥·马里安奈利 (id:1018392)

  第64届威尼斯电影节 (2007)
  金狮奖(提名)
   └──乔·赖特 (id:1275041)

  第65届金球奖 (2008)
  电影类 最佳剧情片
  电影类 最佳导演(提名)
   └──乔·赖特 (id:1275041)
  电影类 剧情片最佳男主角(提名)
   └──詹姆斯·麦卡沃伊 (id:1006958)
  电影类 剧情片最佳女主角(提名)
   └──凯拉·奈特莉 (id:1054448)
  电影类 最佳女配角(提名)
   └──西尔莎·罗南 (id:1022004)
  电影类 最佳编剧(提名)
   └──克里斯托弗·汉普顿 (id:1005118)
  电影类 最佳原创配乐
   └──达里奥·马里安奈利 (id:1018392)

  第61届英国电影学院奖 (2008)
  电影奖 最佳影片
  电影奖 最佳英国影片(提名)
  电影奖 最佳导演(提名)
   └──乔·赖特 (id:1275041)
  电影奖 最佳男主角(提名)
   └──詹姆斯·麦卡沃伊 (id:1006958)
  电影奖 最佳女主角(提名)
   └──凯拉·奈特莉 (id:1054448)
  电影奖 最佳女配角(提名)
   └──西尔莎·罗南 (id:1022004)
  电影奖 最佳改编剧本(提名)
   └──克里斯托弗·汉普顿 (id:1005118)
  电影奖 最佳摄影(提名)
   └──西穆斯·迈克加维 (id:1009786)
  电影奖 最佳剪辑(提名)
   └──保罗·托西尔 (id:1299433)
  电影奖 最佳化妆/发型(提名)
   └──伊凡娜·普里莫拉克 (id:1294917)
  电影奖 最佳服装设计(提名)
   └──杰奎琳·杜兰 (id:1282857)
  电影奖 最佳艺术指导
  电影奖 最佳原创音乐(提名)
   └──达里奥·马里安奈利 (id:1018392)
  电影奖 最佳音效(提名)

  第21届欧洲电影奖 (2008)
  观众选择奖(提名)
  最佳男主角(提名)
   └──詹姆斯·麦卡沃伊 (id:1006958)
  最佳配乐(提名)
   └──达里奥·马里安奈利 (id:1018392)

  1. ##### MediaInfo ######
  2. General
  3. Unique ID                                : 219867057375745325610423949605043815568 (0xA568DADE8E2CB32DB02EB7AB89B5C490)
  4. Complete name                            : Atonement.2007.BluRay.1080p.x265.10bit.2Audio-MiniHD.mkv
  5. Format                                   : Matroska
  6. Format version                           : Version 2
  7. File size                                : 6.61 GiB
  8. Duration                                 : 2 h 2 min
  9. Overall bit rate                         : 7 703 kb/s
  10. Encoded date                             : UTC 2017-11-28 09:08:51
  11. Writing application                      : mkvmerge v18.0.0 ('Apricity') 64-bit
  12. Writing library                          : libebml v1.3.5 + libmatroska v1.4.8
  13. Video
  14. ID                                       : 1
  15. Format                                   : HEVC
  16. Format/Info                              : High Efficiency Video Coding
  17. Format profile                           : Main 10@L4@High
  18. Codec ID                                 : V_MPEGH/ISO/HEVC
  19. Duration                                 : 2 h 2 min
  20. Bit rate                                 : 6 661 kb/s
  21. Width                                    : 1 920 pixels
  22. Height                                   : 1 080 pixels
  23. Display aspect ratio                     : 16:9
  24. Frame rate mode                          : Constant
  25. Frame rate                               : 23.976 (24000/1001/53354) FPS
  26. Color space                              : YUV
  27. Chroma subsampling                       : 4:2:0
  28. Bit depth                                : 10 bits
  29. Bits/(Pixel*Frame)                       : 0.134
  30. Stream size                              : 5.72 GiB (86%)
  31. Title                                    : Atonement.2007.hevc
  32. Writing library                          : x265 2.5+6-gfe8703dcb+15:[Windows][GCC 7.1.0][64 bit] Asuna 10bit
  33. Encoding settings                        : cpuid=533541173503 / frame-threads=4 / numa-pools=16 / wpp / no-pmode / no-pme / no-psnr / no-ssim / log-level=4 / csvfn=D:\Video\m2ts\Atonement\265.2.log / csv-log-level=0 / input-csp=1 / input-res=1920x1080 / interlace=0 / total-frames=176784 / level-idc=0 / high-tier=1 / uhd-bd=0 / ref=5 / no-allow-non-conformance / no-repeat-headers / annexb / no-aud / no-hrd / info / hash=0 / no-temporal-layers / no-open-gop / min-keyint=1 / keyint=360 / bframes=8 / b-adapt=2 / b-pyramid / bframe-bias=0 / rc-lookahead=60 / lookahead-slices=4 / NTMzNTQ=uuDQuD2mJt9fsCf / scenecut=40 / no-intra-refresh / ctu=32 / min-cu-size=8 / no-rect / no-amp / max-tu-size=16 / tu-inter-depth=2 / tu-intra-depth=2 / limit-tu=4 / rdoq-level=2 / dynamic-rd=0.00 / ssim-rd / signhide / no-tskip / nr-intra=0 / nr-inter=0 / no-constrained-intra / no-strong-intra-smoothing / max-merge=3 / limit-refs=2 / limit-modes / me=3 / subme=5 / merange=25 / temporal-mvp / weightp / weightb / no-analyze-src-pics / deblock=-1:-1 / no-sao / no-sao-non-deblock / rd=4 / no-early-skip / rskip / no-fast-intra / no-tskip-fast / no-cu-lossless / b-intra / rdpenalty=1 / psy-rd=1.55 / psy-rdoq=1.80 / no-rd-refine / analysis-reuse-mode=0 / no-lossless / cbqpoffs=-2 / crqpoffs=-2 / rc=crf / crf=20.0000 / qcomp=0.65 / qpstep=4 / stats-write=0 / stats-read=0 / vbv-maxrate=17500 / vbv-bufsize=19500 / vbv-init=0.9 / crf-max=0.0 / crf-min=0.0 / ipratio=1.40 / pbratio=1.30 / aq-mode=2 / aq-strength=0.90 / cutree / zone-count=0 / no-strict-cbr / qg-size=16 / no-rc-grain / qpmax=69 / qpmin=0 / no-const-vbv / sar=0 / overscan=0 / videoformat=5 / range=0 / colorprim=1 / transfer=2 / colormatrix=2 / chromaloc=0 / display-window=0 / max-cll=0,0 / min-luma=0 / max-luma=1023 / log2-max-poc-lsb=8 / vui-timing-info / vui-hrd-info / slices=1 / opt-qp-pps / opt-ref-list-length-pps / no-multi-pass-opt-rps / scenecut-bias=0.05 / no-opt-cu-delta-qp / no-aq-motion / no-hdr / no-hdr-opt / no-dhdr10-opt / analysis-reuse-level=5 / scale-factor=0 / refine-intra=0 / refine-inter=0 / refine-mv=0 / no-limit-sao / ctu-info=0
  34. Default                                  : Yes
  35. Forced                                   : No
  36. Color range                              : Limited
  37. Color primaries                          : BT.709
  38. Audio #1
  39. ID                                       : 2
  40. Format                                   : AC-3
  41. Format/Info                              : Audio Coding 3
  42. Commercial name                          : Dolby Digital
  43. Codec ID                                 : A_AC3
  44. Duration                                 : 2 h 2 min
  45. Bit rate mode                            : Constant
  46. Bit rate                                 : 640 kb/s
  47. Channel(s)                               : 6 channels
  48. Channel layout                           : L R C LFE Ls Rs
  49. Sampling rate                            : 48.0 kHz
  50. Frame rate                               : 31.250 FPS (1536 SPF)
  51. Compression mode                         : Lossy
  52. Stream size                              : 563 MiB (8%)
  53. Title                                    : Atonement.2007.ac3.English.640K
  54. Language                                 : English
  55. Service kind                             : Complete Main
  56. Default                                  : Yes
  57. Forced                                   : No
  58. Audio #2
  59. ID                                       : 3
  60. Format                                   : AC-3
  61. Format/Info                              : Audio Coding 3
  62. Commercial name                          : Dolby Digital
  63. Codec ID                                 : A_AC3
  64. Duration                                 : 2 h 2 min
  65. Bit rate mode                            : Constant
  66. Bit rate                                 : 384 kb/s
  67. Channel(s)                               : 6 channels
  68. Channel layout                           : L R C LFE Ls Rs
  69. Sampling rate                            : 48.0 kHz
  70. Frame rate                               : 31.250 FPS (1536 SPF)
  71. Compression mode                         : Lossy
  72. Stream size                              : 338 MiB (5%)
  73. Title                                    : Atonement.2007.ac3.Chinese.384K
  74. Language                                 : Chinese
  75. Service kind                             : Complete Main
  76. Default                                  : No
  77. Forced                                   : No
  78. Text #1
  79. ID                                       : 4
  80. Format                                   : PGS
  81. Muxing mode                              : zlib
  82. Codec ID                                 : S_HDMV/PGS
  83. Codec ID/Info                            : Picture based subtitle format used on BDs/HD-DVDs
  84. Duration                                 : 2 h 1 min
  85. Bit rate                                 : 18.2 kb/s
  86. Count of elements                        : 1752
  87. Stream size                              : 15.9 MiB (0%)
  88. Title                                    : Atonement.2007.cht
  89. Language                                 : Chinese
  90. Default                                  : Yes
  91. Forced                                   : No
  92. Text #2
  93. ID                                       : 5
  94. Format                                   : PGS
  95. Muxing mode                              : zlib
  96. Codec ID                                 : S_HDMV/PGS
  97. Codec ID/Info                            : Picture based subtitle format used on BDs/HD-DVDs
  98. Duration                                 : 1 h 53 min
  99. Bit rate                                 : 28.1 kb/s
  100. Count of elements                        : 1896
  101. Stream size                              : 22.8 MiB (0%)
  102. Title                                    : Atonement.2007.eng
  103. Language                                 : English
  104. Default                                  : No
  105. Forced                                   : No
  106. Menu
  107. 00:00:00.000                             : en:Chapter 01
  108. 00:06:28.000                             : en:Chapter 02
  109. 00:13:52.000                             : en:Chapter 03
  110. 00:20:25.000                             : en:Chapter 04
  111. 00:26:04.000                             : en:Chapter 05
  112. 00:33:01.000                             : en:Chapter 06
  113. 00:38:42.000                             : en:Chapter 07
  114. 00:43:33.000                             : en:Chapter 08
  115. 00:49:33.000                             : en:Chapter 09
  116. 00:57:49.000                             : en:Chapter 10
  117. 01:04:18.000                             : en:Chapter 11
  118. 01:10:23.000                             : en:Chapter 12
  119. 01:17:26.000                             : en:Chapter 13
  120. 01:20:09.000                             : en:Chapter 14
  121. 01:25:09.000                             : en:Chapter 15
  122. 01:28:46.000                             : en:Chapter 16
  123. 01:34:26.000                             : en:Chapter 17
  124. 01:37:37.000                             : en:Chapter 18
  125. 01:46:15.000                             : en:Chapter 19
  126. 01:54:30.000                             : en:Chapter 20
  127. 02:02:53.000                             : en:Chapter 21





此处一般会放置磁力链或种子下载链接,不过此链接需要注册会员才能看到,点击“立即注册”
磁力链下载【下载链接仅对注册会员开放,登陆后可见】
BT9527电影天堂 1、BT9527电影天堂提供的BT文件均来源于互联网抓取,只供网友学习交流、技术提升使用。
2、我们遵守BitTorrent点对点协议原则,任何版权问题请联系原资源发布商,我们不处理任何版权纠纷,谢谢!如有争议请联系邮箱:BT9527#hotmail.com(#换成@)
3、如果您发现某页面或地址有错误,请联系站长邮箱BT9527#hotmail.com(#换成@),我们会尽快处理。您的热心是对BT9527电影天堂最大的支持。
4、本站建议去正规影院观看电影以支持电影行业发展。
最新回复 (0)

你可以在 登录 or 注册 后,对此帖发表评论!

返回