赶尽杀绝[国英多音轨/中英字幕].Shoot.Em.Up.2007.BluRay.1080p.x265.10bit.2Audio-MiniHD 5.38GB

版主小s 3月前 162

✔资源类型:暂未分类   ✔电影年份:2007   ✔电影地区:欧美   ✔电影分类:动作

◎译  名 赶尽杀绝 / 史密斯先生(台) / 无名火(港) / 火线保镖 / 弹尽杀绝
◎片  名 Shoot 'Em Up
◎年  代 2007
◎产  地 美国
◎类  别 动作 / 惊悚
◎语  言 英语 / 意大利语
◎上映日期 2007-09-07(美国)
◎IMDb链接 https://www.imdb.com/title/tt0465602/
◎豆瓣评分 7.4/10 (47495人评价)
◎豆瓣链接 https://movie.douban.com/subject/1947080/
◎片  长 86 分钟
◎导  演 迈克尔·戴维斯 Michael Davis (id:1281920)
◎编  剧 迈克尔·戴维斯 Michael Davis (id:1281920)
◎演  员 克里夫·欧文 Clive Owen (id:1025147)
       莫妮卡·贝鲁奇 Monica Bellucci (id:1025156)
       保罗·吉亚玛提 Paul Giamatti (id:1017893)
       史蒂芬·麦克哈蒂 Stephen McHattie (id:1007032)
       格雷格·布瑞克 Greg Bryk (id:1353762)
       丹尼尔·皮隆 Daniel Pilon (id:1134459)
       Ramona Pringle Ramona Pringle (id:1428897)
       保罗·海斯林格 Paul Haslinger (id:1037358)
       鲍德熹 Peter Pau (id:1294116)

◎简  介
  漆黑的夜里,史密斯(克里夫?欧文 Clive Owen 饰)无意中被卷入了一场黑帮的追杀,穿越激烈的枪林弹雨,他解救了一个在襁褓中的婴儿。婴儿的啼哭,让这个功夫了得的铁汉遭遇了难言的尴尬。除了在超市购置婴儿用品之外,他还得解决婴儿的喂奶问题。这时,他想到了在妓院工作的朋友DQ(莫妮卡?贝鲁奇 Monica Bellucci 饰),并强行赶走了嫖客,把婴儿托付给她。DQ其实对史密斯怀有深情,却一直没有机会表白。在蜂拥而至的黑帮暴徒来临之际,两人终于坦诚相见,并肩作战,照顾婴儿。经过史密斯的调查,他们发现想要加害婴儿的黑帮其实跟军火商有关系,而且他们还雇佣了很多代孕妈妈。史密斯隐隐觉得这背后隐藏着一个不可告人的秘密,于是他决定铤而走险,一场正邪较量由此展开……
  1. ##### MediaInfo ######
  2. General
  3. Unique ID                                : 232316385377249383391326118099861181203 (0xAEC682210FDA62E296B9231155291313)
  4. Complete name                            : Shoot.Em.Up.2007.BluRay.1080p.x265.10bit.2Audio-MiniHD.mkv
  5. Format                                   : Matroska
  6. Format version                           : Version 4
  7. File size                                : 5.38 GiB
  8. Duration                                 : 1 h 26 min
  9. Overall bit rate                         : 8 894 kb/s
  10. Encoded date                             : UTC 2017-09-26 02:39:26
  11. Writing application                      : mkvmerge v11.0.0 ('Alive') 64bit
  12. Writing library                          : libebml v1.3.4 + libmatroska v1.4.5
  13. Video
  14. ID                                       : 1
  15. Format                                   : HEVC
  16. Format/Info                              : High Efficiency Video Coding
  17. Codec ID                                 : V_MPEGH/ISO/HEVC
  18. Duration                                 : 1 h 26 min
  19. Bit rate                                 : 7 437 kb/s
  20. Width                                    : 1 918 pixels
  21. Height                                   : 818 pixels
  22. Display aspect ratio                     : 2.35:1
  23. Frame rate mode                          : Constant
  24. Frame rate                               : 23.976 (24000/1001/53354) FPS
  25. Bits/(Pixel*Frame)                       : 0.198
  26. Stream size                              : 4.50 GiB (84%)
  27. Default                                  : Yes
  28. Forced                                   : No
  29. Audio #1
  30. ID                                       : 2
  31. Format                                   : AC-3
  32. Format/Info                              : Audio Coding 3
  33. Commercial name                          : Dolby Digital
  34. Codec ID                                 : A_AC3
  35. Duration                                 : 1 h 26 min
  36. Bit rate mode                            : Constant
  37. Bit rate                                 : 640 kb/s
  38. Channel(s)                               : 6 channels
  39. Channel layout                           : L R C LFE Ls Rs
  40. Sampling rate                            : 48.0 kHz
  41. Frame rate                               : 31.250 FPS (1536 SPF)
  42. Compression mode                         : Lossy
  43. Stream size                              : 396 MiB (7%)
  44. Language                                 : English
  45. Service kind                             : Complete Main
  46. Default                                  : Yes
  47. Forced                                   : No
  48. Audio #2
  49. ID                                       : 3
  50. Format                                   : AC-3
  51. Format/Info                              : Audio Coding 3
  52. Commercial name                          : Dolby Digital
  53. Codec ID                                 : A_AC3
  54. Duration                                 : 1 h 26 min
  55. Bit rate mode                            : Constant
  56. Bit rate                                 : 640 kb/s
  57. Channel(s)                               : 6 channels
  58. Channel layout                           : L R C LFE Ls Rs
  59. Sampling rate                            : 48.0 kHz
  60. Frame rate                               : 31.250 FPS (1536 SPF)
  61. Compression mode                         : Lossy
  62. Stream size                              : 396 MiB (7%)
  63. Language                                 : Chinese
  64. Service kind                             : Complete Main
  65. Default                                  : No
  66. Forced                                   : No
  67. Text #1
  68. ID                                       : 4
  69. Format                                   : PGS
  70. Muxing mode                              : zlib
  71. Codec ID                                 : S_HDMV/PGS
  72. Codec ID/Info                            : Picture based subtitle format used on BDs/HD-DVDs
  73. Language                                 : English
  74. Default                                  : Yes
  75. Forced                                   : No
  76. Text #2
  77. ID                                       : 5
  78. Format                                   : PGS
  79. Muxing mode                              : zlib
  80. Codec ID                                 : S_HDMV/PGS
  81. Codec ID/Info                            : Picture based subtitle format used on BDs/HD-DVDs
  82. Language                                 : Chinese
  83. Default                                  : No
  84. Forced                                   : No
  85. Text #3
  86. ID                                       : 6
  87. Format                                   : PGS
  88. Muxing mode                              : zlib
  89. Codec ID                                 : S_HDMV/PGS
  90. Codec ID/Info                            : Picture based subtitle format used on BDs/HD-DVDs
  91. Language                                 : Chinese
  92. Default                                  : No
  93. Forced                                   : No
  94. Menu
  95. 00:00:00.000                             : en:Chapter 01
  96. 00:07:56.976                             : en:Chapter 02
  97. 00:09:21.477                             : en:Chapter 03
  98. 00:12:18.821                             : en:Chapter 04
  99. 00:15:09.408                             : en:Chapter 05
  100. 00:22:50.035                             : en:Chapter 06
  101. 00:26:09.401                             : en:Chapter 07
  102. 00:29:56.461                             : en:Chapter 08
  103. 00:36:38.905                             : en:Chapter 09
  104. 00:41:28.694                             : en:Chapter 10
  105. 00:49:59.246                             : en:Chapter 11
  106. 00:57:18.226                             : en:Chapter 12
  107. 01:03:00.610                             : en:Chapter 13
  108. 01:09:28.581                             : en:Chapter 14
  109. 01:17:19.259                             : en:Chapter 15
  110. 01:19:51.828                             : en:Chapter 16





此处一般会放置磁力链或种子下载链接,不过此链接需要注册会员才能看到,点击“立即注册”
磁力链下载【下载链接仅对注册会员开放,登陆后可见】
BT9527电影天堂 1、BT9527电影天堂提供的BT文件均来源于互联网抓取,只供网友学习交流、技术提升使用。
2、我们遵守BitTorrent点对点协议原则,任何版权问题请联系原资源发布商,我们不处理任何版权纠纷,谢谢!如有争议请联系邮箱:BT9527#hotmail.com(#换成@)
3、如果您发现某页面或地址有错误,请联系站长邮箱BT9527#hotmail.com(#换成@),我们会尽快处理。您的热心是对BT9527电影天堂最大的支持。
4、本站建议去正规影院观看电影以支持电影行业发展。
最新回复 (0)

你可以在 登录 or 注册 后,对此帖发表评论!

返回
发新帖