生吃[中英字幕].Raw.AKA.Grave.AKA.Freaking.2016.BluRay.1080p.x265.10bit-MiniHD 4.03GB

版主小s 3月前 159

✔资源类型:暂未分类   ✔电影年份:2016   ✔电影地区:其他   ✔电影分类:剧情

◎译  名 生吃 / 舐血成人礼(港) / 肉狱(台) / RAW / Freaking
◎片  名 Grave
◎年  代 2016
◎产  地 法国 / 意大利 / 比利时
◎类  别 剧情 / 恐怖
◎语  言 法语
◎上映日期 2016-05-14(戛纳电影节) / 2017-03-15(法国)
◎IMDb链接 https://www.imdb.com/title/tt4954522/
◎豆瓣评分 7.1/10 (74825人评价)
◎豆瓣链接 https://movie.douban.com/subject/26653833/
◎片  长 99分钟
◎导  演 朱利亚·迪库诺 Julia Ducournau (id:1358263)
◎编  剧 朱利亚·迪库诺 Julia Ducournau (id:1358263)
◎演  员 加朗斯·马里利埃 Garance Marillier (id:1368368)
       艾拉·朗夫 Ella Rumpf (id:1368614)
       拉巴·纳伊·乌费拉 Rabah Nait Oufella (id:1341719)
       洛朗·吕卡 Laurent Lucas (id:1013704)
       乔安娜·普莱斯 Joana Preiss (id:1325754)
       伯利·兰内尔 Bouli Lanners (id:1048406)
       玛丽安·费尔努 Marion Vernoux (id:1010933)
       让-路易·斯比尔 Jean-Louis Sbille (id:1370695)
       维吉尔·勒克莱尔 Virgil Leclaire (id:1352961)
       贝兰奇尔·麦克尼斯 Bérangère McNeese (id:1338535)
       让·迪·弗埃 Jean des Forêts (id:1452038)

◎简  介
  贾斯汀(加朗斯·莫里利尔 Garance Marillier 饰)生长在一个素食主义家庭之中,严格遵守着饮食上的戒律,从未尝过荤腥。贾斯汀进入了一间兽医学校就读,作为校园里的“菜鸟”,她受到了来自老生们的无情的压榨和排挤,森严的等级制度让贾斯汀倍感压抑,而她和亦在这里就读的姐姐埃里克西亚(艾拉·朗夫Ella Rumpf 饰)之间的关系也十分紧张。                                    
                                没有了父母的管制,贾斯汀决定尝一尝肉的滋味,然而随着时间的推移,她渐渐发现熟肉已经无法再满足她,她的内心里滋生出了对生肉和鲜血的渴望。这日益强烈的渴望折磨着贾斯汀,而埃里克西亚对于妹妹的异样竟然毫无意外。一场意外中,埃里克西亚的手指被剪刀剪下,面对着眼前的断指,贾斯汀再也无法压抑内心的欲望。

◎获奖情况 (共13项)
  第69届戛纳电影节 (2016)
  影评人周单元  影评人周单元大奖 (提名)
   └──朱利亚·迪库诺 (id:1358263)
  酷儿棕榈奖(提名)
   └──朱利亚·迪库诺 (id:1358263)

  第43届法国凯撒电影奖 (2018)
  最佳导演(提名)
   └──朱利亚·迪库诺 (id:1358263)
  最佳新人女演员(提名)
   └──加朗斯·马里利埃 (id:1368368)
  最佳原创剧本(提名)
   └──朱利亚·迪库诺 (id:1358263)
  最佳处女作(提名)
  最佳原创音乐(提名)
  最佳音效(提名)

  第30届芝加哥影评人协会奖 (2017)
  最佳外语片(提名)
  最具潜力导演(提名)
   └──朱利亚·迪库诺 (id:1358263)

  第21届美国在线影评人协会奖 (2017)
  最佳非英语片(提名)

  第4届豆瓣电影年度榜单 (2017)
  评分最高的恐怖片(提名)
  6月最受关注电影(提名)

  1. ##### MediaInfo ######
  2. General
  3. Unique ID                                : 202893558932957316468555288511360703749 (0x98A3E0C9038B740199A0E3CB50D29D05)
  4. Complete name                            : Raw.AKA.Grave.AKA.Freaking.2016.BluRay.1080p.x265.10bit-MiniHD.mkv
  5. Format                                   : Matroska
  6. Format version                           : Version 4
  7. File size                                : 4.02 GiB
  8. Duration                                 : 1 h 38 min
  9. Overall bit rate                         : 5 847 kb/s
  10. Encoded date                             : UTC 2017-08-03 00:40:50
  11. Writing application                      : mkvmerge v11.0.0 ('Alive') 64bit
  12. Writing library                          : libebml v1.3.4 + libmatroska v1.4.5
  13. Video
  14. ID                                       : 1
  15. Format                                   : HEVC
  16. Format/Info                              : High Efficiency Video Coding
  17. Codec ID                                 : V_MPEGH/ISO/HEVC
  18. Duration                                 : 1 h 38 min
  19. Bit rate                                 : 5 090 kb/s
  20. Width                                    : 1 920 pixels
  21. Height                                   : 804 pixels
  22. Display aspect ratio                     : 2.40:1
  23. Frame rate mode                          : Constant
  24. Frame rate                               : 23.976 (24000/1001/53354) FPS
  25. Bits/(Pixel*Frame)                       : 0.138
  26. Stream size                              : 3.50 GiB (87%)
  27. Default                                  : Yes
  28. Forced                                   : No
  29. Audio
  30. ID                                       : 2
  31. Format                                   : AC-3
  32. Format/Info                              : Audio Coding 3
  33. Commercial name                          : Dolby Digital
  34. Codec ID                                 : A_AC3
  35. Duration                                 : 1 h 38 min
  36. Bit rate mode                            : Constant
  37. Bit rate                                 : 640 kb/s
  38. Channel(s)                               : 6 channels
  39. Channel layout                           : L R C LFE Ls Rs
  40. Sampling rate                            : 48.0 kHz
  41. Frame rate                               : 31.250 FPS (1536 SPF)
  42. Compression mode                         : Lossy
  43. Stream size                              : 451 MiB (11%)
  44. Language                                 : French
  45. Service kind                             : Complete Main
  46. Default                                  : Yes
  47. Forced                                   : No
  48. Text #1
  49. ID                                       : 3
  50. Format                                   : PGS
  51. Muxing mode                              : zlib
  52. Codec ID                                 : S_HDMV/PGS
  53. Codec ID/Info                            : Picture based subtitle format used on BDs/HD-DVDs
  54. Language                                 : English
  55. Default                                  : Yes
  56. Forced                                   : No
  57. Text #2
  58. ID                                       : 4
  59. Format                                   : PGS
  60. Muxing mode                              : zlib
  61. Codec ID                                 : S_HDMV/PGS
  62. Codec ID/Info                            : Picture based subtitle format used on BDs/HD-DVDs
  63. Language                                 : Chinese
  64. Default                                  : No
  65. Forced                                   : No
  66. Text #3
  67. ID                                       : 5
  68. Format                                   : PGS
  69. Muxing mode                              : zlib
  70. Codec ID                                 : S_HDMV/PGS
  71. Codec ID/Info                            : Picture based subtitle format used on BDs/HD-DVDs
  72. Language                                 : Chinese
  73. Default                                  : No
  74. Forced                                   : No
  75. Text #4
  76. ID                                       : 6
  77. Format                                   : PGS
  78. Muxing mode                              : zlib
  79. Codec ID                                 : S_HDMV/PGS
  80. Codec ID/Info                            : Picture based subtitle format used on BDs/HD-DVDs
  81. Language                                 : Chinese
  82. Default                                  : No
  83. Forced                                   : No
  84. Text #5
  85. ID                                       : 7
  86. Format                                   : PGS
  87. Muxing mode                              : zlib
  88. Codec ID                                 : S_HDMV/PGS
  89. Codec ID/Info                            : Picture based subtitle format used on BDs/HD-DVDs
  90. Language                                 : Chinese
  91. Default                                  : No
  92. Forced                                   : No
  93. Menu
  94. 00:00:00.000                             : en:Chapter 01
  95. 00:02:49.961                             : en:Chapter 02
  96. 00:06:27.010                             : en:Chapter 03
  97. 00:12:44.637                             : en:Chapter 04
  98. 00:16:40.374                             : en:Chapter 05
  99. 00:22:37.147                             : en:Chapter 06
  100. 00:27:55.590                             : en:Chapter 07
  101. 00:31:51.534                             : en:Chapter 08
  102. 00:36:50.791                             : en:Chapter 09
  103. 00:42:03.145                             : en:Chapter 10
  104. 00:47:29.680                             : en:Chapter 11
  105. 00:50:26.648                             : en:Chapter 12
  106. 00:55:41.463                             : en:Chapter 13
  107. 01:01:51.541                             : en:Chapter 14
  108. 01:07:02.101                             : en:Chapter 15
  109. 01:11:05.511                             : en:Chapter 16
  110. 01:17:01.158                             : en:Chapter 17
  111. 01:21:52.448                             : en:Chapter 18
  112. 01:30:13.741                             : en:Chapter 19
  113. 01:32:44.517                             : en:Chapter 20





此处一般会放置磁力链或种子下载链接,不过此链接需要注册会员才能看到,点击“立即注册”
磁力链下载【下载链接仅对注册会员开放,登陆后可见】
BT9527电影天堂 1、BT9527电影天堂提供的BT文件均来源于互联网抓取,只供网友学习交流、技术提升使用。
2、我们遵守BitTorrent点对点协议原则,任何版权问题请联系原资源发布商,我们不处理任何版权纠纷,谢谢!如有争议请联系邮箱:BT9527#hotmail.com(#换成@)
3、如果您发现某页面或地址有错误,请联系站长邮箱BT9527#hotmail.com(#换成@),我们会尽快处理。您的热心是对BT9527电影天堂最大的支持。
4、本站建议去正规影院观看电影以支持电影行业发展。
最新回复 (0)

你可以在 登录 or 注册 后,对此帖发表评论!

返回
发新帖