海洋[国语配音/中文字幕].Oceans.2009.1080p.BluRay.TrueHD.5.1.2Audio.x265-10bit-ENTHD 11.20GB

版主小s 3月前 139

✔资源类型:暂未分类   ✔电影年份:2009   ✔电影地区:其他   ✔电影分类:其他

◎译  名 海洋 / Oceans
◎片  名 Océans
◎年  代 2009
◎产  地 法国 / 瑞士 / 西班牙 / 美国 / 阿联酋 / 摩纳哥
◎类  别 纪录片
◎语  言 法语
◎上映日期 2011-08-12(中国大陆) / 2009-10-17(东京电影节) / 2010-01-27(法国)
◎IMDb链接 https://www.imdb.com/title/tt0765128/
◎豆瓣评分 9.1/10 (149454人评价)
◎豆瓣链接 https://movie.douban.com/subject/3443389/
◎片  长 104分钟(法国)
◎导  演 雅克·贝汉 Jacques Perrin (id:1010752)
       雅克·克鲁奥德 Jacques Cluzaud (id:1280923)
◎编  剧 克里斯托夫·谢松 Christophe Cheysson (id:1323597)
       雅克·克鲁奥德 Jacques Cluzaud (id:1280923)
       洛朗·德巴 Laurent Debas (id:1323598)
       斯特凡纳·迪朗 Stéphane Durand (id:1323599)
       洛朗·戈德 Laurent Gaudé (id:1323600)
       雅克·贝汉 Jacques Perrin (id:1010752)
       弗朗索瓦·萨兰诺 Fran?ois Sarano (id:1323601)
◎演  员 皮尔斯·布鲁斯南 Pierce Brosnan (id:1031219)
       小佩德罗·阿门达里斯 Pedro Armendáriz Jr. (id:1002848)
       雅克·贝汉 Jacques Perrin (id:1010752)
       宫泽理惠 Rie Miyazawa (id:1121531)
       马蒂亚斯·勃兰特 Matthias Brandt (id:1028804)
       阿尔多 Aldo (id:1028499)
       兰斯洛特·佩林 Lancelot Perrin (id:1315602)
       Manolo Garcia Manolo Garcia (id:1410865)
       姜文 Wen Jiang (id:1021999)
       雅克·贝汉 Jacques Perrin (id:1010752)
       柯克·维斯 Kirk Wise (id:1050563)
       唐·哈恩 Don Hahn (id:1285799)
       Connie Nartonis Thompson Connie Nartonis Thompson (id:1046620)
       尼古拉·毛弗奈 Nicolas Mauvernay (id:1305003)
       布鲁诺·库莱斯 Bruno Coulais (id:1016799)
       Luc Drion Luc Drion (id:1282736)
       卢西亚诺·都沃里 Luciano Tovoli (id:1041998)
       让·拉巴斯 Jean Rabasse (id:1295094)
       文森特·斯泰格尔 Vincent Steiger (id:1468718)
       Alain Lalanne Alain Lalanne (id:1132135)

◎简  介
  《海洋》耗时五年,耗资5000万欧元,动用12个摄制组、70艘船,在全球50个拍摄地,有超过100个物种被拍摄,超过500小时的海底世界及海洋相关素材,是史上投资最大的纪录片。                                    
                                海洋是什么?这部电影告诉你答案。这是一部以环保为主题,令人心旷神怡、叹为观止的生态学纪录片。本片聚焦于覆盖着地球表面的四分之三的“蓝色领土”。导演深入探索这个幽深而富饶的神秘世界、完整地呈现海洋的壮美辽阔。真实的动物世界的冒险远比动画片中的故事来的精彩,接下来银幕展开——巨大的水母群、露脊鲸、大白鲨、企鹅等。毫不吝啬在镜头前展示他们旺盛的生命力,让人叹为观止。
  1. ##### MediaInfo ######
  2. General
  3. Unique ID                                : 204615423667009840885727424601839694170 (0x99EF7F4560D279F4842F08074C3CF15A)
  4. Complete name                            : Oceans.2009.1080p.BluRay.TrueHD.5.1.2Audio.x265-10bit-ENTHD.mkv
  5. Format                                   : Matroska
  6. Format version                           : Version 4
  7. File size                                : 11.2 GiB
  8. Duration                                 : 1 h 43 min
  9. Overall bit rate mode                    : Variable
  10. Overall bit rate                         : 15.4 Mb/s
  11. Movie name                               : Oceans 2009 1080p BluRay TrueHD 5.1 2Audio x265-10bit-HDS
  12. Encoded date                             : UTC 2022-06-07 08:39:55
  13. Writing application                      : mkvmerge v38.0.0 ('The Silent Type') 64-bit
  14. Writing library                          : libebml v1.3.9 + libmatroska v1.5.2
  15. Video
  16. ID                                       : 1
  17. Format                                   : HEVC
  18. Format/Info                              : High Efficiency Video Coding
  19. Format profile                           : Main 10@L5.1@High
  20. Codec ID                                 : V_MPEGH/ISO/HEVC
  21. Duration                                 : 1 h 43 min
  22. Bit rate                                 : 10.9 Mb/s
  23. Width                                    : 1 920 pixels
  24. Height                                   : 806 pixels
  25. Display aspect ratio                     : 2.40:1
  26. Frame rate mode                          : Constant
  27. Frame rate                               : 24.000 FPS
  28. Color space                              : YUV
  29. Chroma subsampling                       : 4:2:0
  30. Bit depth                                : 10 bits
  31. Bits/(Pixel*Frame)                       : 0.295
  32. Stream size                              : 7.93 GiB (71%)
  33. Title                                    : yusuble@HDSky
  34. Writing library                          : x265 - H.265/HEVC codec
  35. Default                                  : Yes
  36. Forced                                   : No
  37. Audio #1
  38. ID                                       : 2
  39. Format                                   : MLP FBA
  40. Format/Info                              : Meridian Lossless Packing FBA
  41. Commercial name                          : Dolby TrueHD
  42. Codec ID                                 : A_TRUEHD
  43. Duration                                 : 1 h 43 min
  44. Bit rate mode                            : Variable
  45. Bit rate                                 : 4 055 kb/s
  46. Maximum bit rate                         : 5 397 kb/s
  47. Channel(s)                               : 6 channels
  48. Channel layout                           : L R C LFE Ls Rs
  49. Sampling rate                            : 48.0 kHz
  50. Frame rate                               : 1 200.000 FPS (40 SPF)
  51. Compression mode                         : Lossless
  52. Stream size                              : 2.94 GiB (26%)
  53. Title                                    : French
  54. Language                                 : French
  55. Default                                  : Yes
  56. Forced                                   : No
  57. Audio #2
  58. ID                                       : 3
  59. Format                                   : AC-3
  60. Format/Info                              : Audio Coding 3
  61. Commercial name                          : Dolby Digital
  62. Codec ID                                 : A_AC3
  63. Duration                                 : 1 h 43 min
  64. Bit rate mode                            : Constant
  65. Bit rate                                 : 384 kb/s
  66. Channel(s)                               : 6 channels
  67. Channel layout                           : L R C LFE Ls Rs
  68. Sampling rate                            : 48.0 kHz
  69. Frame rate                               : 31.250 FPS (1536 SPF)
  70. Compression mode                         : Lossy
  71. Stream size                              : 285 MiB (2%)
  72. Title                                    : Mandarin
  73. Language                                 : Chinese
  74. Service kind                             : Complete Main
  75. Default                                  : No
  76. Forced                                   : No
  77. Text #1
  78. ID                                       : 4
  79. Format                                   : PGS
  80. Muxing mode                              : zlib
  81. Codec ID                                 : S_HDMV/PGS
  82. Codec ID/Info                            : Picture based subtitle format used on BDs/HD-DVDs
  83. Duration                                 : 1 h 32 min
  84. Bit rate                                 : 3 187 b/s
  85. Count of elements                        : 234
  86. Stream size                              : 2.11 MiB (0%)
  87. Title                                    : CHS
  88. Language                                 : Chinese
  89. Default                                  : Yes
  90. Forced                                   : No
  91. Text #2
  92. ID                                       : 5
  93. Format                                   : PGS
  94. Muxing mode                              : zlib
  95. Codec ID                                 : S_HDMV/PGS
  96. Codec ID/Info                            : Picture based subtitle format used on BDs/HD-DVDs
  97. Duration                                 : 1 h 32 min
  98. Bit rate                                 : 3 314 b/s
  99. Count of elements                        : 234
  100. Stream size                              : 2.20 MiB (0%)
  101. Title                                    : CHT
  102. Language                                 : Chinese
  103. Default                                  : No
  104. Forced                                   : No
  105. Menu
  106. 00:00:00.000                             : en:Chapter 01
  107. 00:10:27.000                             : en:Chapter 02
  108. 00:20:07.000                             : en:Chapter 03
  109. 00:30:34.000                             : en:Chapter 04
  110. 00:40:17.000                             : en:Chapter 05
  111. 00:50:30.000                             : en:Chapter 06
  112. 01:00:01.000                             : en:Chapter 07
  113. 01:10:23.000                             : en:Chapter 08
  114. 01:20:46.000                             : en:Chapter 09
  115. 01:30:14.000                             : en:Chapter 10





此处一般会放置磁力链或种子下载链接,不过此链接需要注册会员才能看到,点击“立即注册”
磁力链下载【下载链接仅对注册会员开放,登陆后可见】
BT9527电影天堂 1、BT9527电影天堂提供的BT文件均来源于互联网抓取,只供网友学习交流、技术提升使用。
2、我们遵守BitTorrent点对点协议原则,任何版权问题请联系原资源发布商,我们不处理任何版权纠纷,谢谢!如有争议请联系邮箱:BT9527#hotmail.com(#换成@)
3、如果您发现某页面或地址有错误,请联系站长邮箱BT9527#hotmail.com(#换成@),我们会尽快处理。您的热心是对BT9527电影天堂最大的支持。
4、本站建议去正规影院观看电影以支持电影行业发展。
最新回复 (0)

你可以在 登录 or 注册 后,对此帖发表评论!

返回
发新帖