这个男人来自地球[简繁英字幕].The.Man.From.Earth.2007.BluRay.1080p.x265.10bit-MiniHD 4.17GB

版主小s 17天前 27

✔资源类型:暂未分类   ✔电影年份:2007   ✔电影地区:欧美   ✔电影分类:剧情

◎译  名 这个男人来自地球 / 地球不死人(港) / 这个人来自洞穴 / 来自地穴的男人 / 穴居人 / 地底奇人 / 长生不老 / 来自地球的男人
◎片  名 The Man from Earth
◎年  代 2007
◎产  地 美国
◎类  别 剧情 / 科幻
◎语  言 英语
◎上映日期 2007-11-13(美国)
◎IMDb链接 https://www.imdb.com/title/tt0756683/
◎豆瓣评分 8.5/10 (344457人评价)
◎豆瓣链接 https://movie.douban.com/subject/2300586/
◎片  长 87 分钟
◎导  演 理查德·沙因克曼 Richard Schenkman (id:1032461)
◎编  剧 杰罗姆·比克斯比 Jerome Bixby (id:1014245)
◎演  员 大卫·李·史密斯 David Lee Smith (id:1149041)
       托尼·托德 Tony Todd (id:1036498)
       约翰·比灵斯列 John Billingsley (id:1048182)
       安妮卡·彼得森 Annika Peterson (id:1014225)
       阿丽西丝·索普 Alexis Thorpe (id:1000412)
       威廉姆·卡特 William Katt (id:1007047)
       理查德·雷西尔 Richard Riehle (id:1142526)
       艾伦·克劳福德 Ellen Crawford (id:1326593)
       史蒂文·利特尔 Steven Littles (id:1255441)
       罗比·布赖恩 Robbie Bryan (id:1279515)
       罗比·布赖恩 Robbie Bryan (id:1279515)

◎简  介
  一个普通男人的秘密在他的辞职事件中开始显示出端倪。历史教授约翰奥德曼(David Lee Smith饰)说自己身上有一个让大家都匪夷所思的秘密,而为了保守这个秘密他不能在一个地方超过十年。他的朋友们试图去发掘他的故事中的秘密,这一举动让约翰非常生气,而他的朋友却发现约翰的故事是无法被否定也无法查证的,究竟约翰身上有着怎样的秘密?一幕幕碎片联系起来,带给我们一个意料之外的故事高潮。
  1. ##### MediaInfo ######
  2. General
  3. Unique ID                                : 172836960651540978444889768552565644667 (0x82073013C3793530AEB68F4530AD1D7B)
  4. Complete name                            : The.Man.From.Earth.2007.BluRay.1080p.x265.10bit-MiniHD.mkv
  5. Format                                   : Matroska
  6. Format version                           : Version 4
  7. File size                                : 4.16 GiB
  8. Duration                                 : 1 h 27 min
  9. Overall bit rate                         : 6 842 kb/s
  10. Encoded date                             : UTC 2017-11-14 07:09:49
  11. Writing application                      : mkvmerge v17.0.0 ('Be Ur Friend') 64-bit
  12. Writing library                          : libebml v1.3.5 + libmatroska v1.4.8
  13. Video
  14. ID                                       : 1
  15. Format                                   : HEVC
  16. Format/Info                              : High Efficiency Video Coding
  17. Format profile                           : Main 10@L4@Main
  18. Codec ID                                 : V_MPEGH/ISO/HEVC
  19. Duration                                 : 1 h 27 min
  20. Bit rate                                 : 6 025 kb/s
  21. Width                                    : 1 920 pixels
  22. Height                                   : 1 080 pixels
  23. Display aspect ratio                     : 16:9
  24. Frame rate mode                          : Constant
  25. Frame rate                               : 23.976 (24000/1001/53354) FPS
  26. Color space                              : YUV
  27. Chroma subsampling                       : 4:2:0
  28. Bit depth                                : 10 bits
  29. Bits/(Pixel*Frame)                       : 0.121
  30. Stream size                              : 3.67 GiB (88%)
  31. Writing library                          : x265 2.5+14-2718cb5dd67f:[Windows][GCC 7.1.0][64 bit] 10bit
  32. Encoding settings                        : cpuid=533541173503 / frame-threads=5 / numa-pools=36 / wpp / no-pmode / no-pme / no-psnr / no-ssim / log-level=2 / csvfn=D:\bdrip\The.Man.From.Earth.2007.log / csv-log-level=0 / input-csp=1 / input-res=1920x1080 / interlace=0 / total-frames=125350 / level-idc=0 / high-tier=1 / uhd-bd=0 / ref=5 / no-allow-non-conformance / no-repeat-headers / annexb / no-aud / no-hrd / info / hash=0 / no-temporal-layers / no-open-gop / min-keyint=1 / keyint=360 / bframes=9 / b-adapt=2 / b-pyramid / bframe-bias=0 / rc-lookahead=60 / lookahead-slices=4 / NTMzNTQ=uuDQuD2mJt9fsCf / scenecut=40 / no-intra-refresh / ctu=32 / min-cu-size=8 / no-rect / no-amp / max-tu-size=16 / tu-inter-depth=2 / tu-intra-depth=2 / limit-tu=4 / rdoq-level=1 / dynamic-rd=0.00 / ssim-rd / signhide / no-tskip / nr-intra=0 / nr-inter=0 / no-constrained-intra / no-strong-intra-smoothing / max-merge=3 / limit-refs=2 / limit-modes / me=3 / subme=5 / merange=25 / temporal-mvp / weightp / weightb / no-analyze-src-pics / deblock=-1:-1 / no-sao / no-sao-non-deblock / rd=4 / no-early-skip / no-rskip / no-fast-intra / no-tskip-fast / no-cu-lossless / b-intra / no-splitrd-skip / rdpenalty=1 / psy-rd=0.00 / psy-rdoq=5.00 / no-rd-refine / analysis-reuse-mode=0 / no-lossless / cbqpoffs=-1 / crqpoffs=-1 / rc=crf / crf=21.0 / qcomp=0.65 / qpstep=4 / stats-write=0 / stats-read=0 / ipratio=1.40 / pbratio=1.30 / aq-mode=1 / aq-strength=0.90 / cutree / zone-count=0 / no-strict-cbr / qg-size=16 / no-rc-grain / qpmax=69 / qpmin=0 / no-const-vbv / sar=0 / overscan=0 / videoformat=5 / range=0 / colorprim=1 / transfer=2 / colormatrix=2 / chromaloc=0 / display-window=0 / max-cll=0,0 / min-luma=0 / max-luma=1023 / log2-max-poc-lsb=8 / vui-timing-info / vui-hrd-info / slices=1 / opt-qp-pps / opt-ref-list-length-pps / no-multi-pass-opt-rps / scenecut-bias=0.05 / no-opt-cu-delta-qp / no-aq-motion / no-hdr / no-hdr-opt / no-dhdr10-opt / analysis-reuse-level=5 / scale-factor=0 / refine-intra=0 / refine-inter=0 / refine-mv=0 / no-limit-sao / ctu-info=0
  33. Default                                  : Yes
  34. Forced                                   : No
  35. Color range                              : Limited
  36. Color primaries                          : BT.709
  37. Audio
  38. ID                                       : 2
  39. Format                                   : AC-3
  40. Format/Info                              : Audio Coding 3
  41. Commercial name                          : Dolby Digital
  42. Codec ID                                 : A_AC3
  43. Duration                                 : 1 h 27 min
  44. Bit rate mode                            : Constant
  45. Bit rate                                 : 640 kb/s
  46. Channel(s)                               : 6 channels
  47. Channel layout                           : L R C LFE Ls Rs
  48. Sampling rate                            : 48.0 kHz
  49. Frame rate                               : 31.250 FPS (1536 SPF)
  50. Compression mode                         : Lossy
  51. Stream size                              : 399 MiB (9%)
  52. Title                                    : 英语
  53. Language                                 : English
  54. Service kind                             : Complete Main
  55. Default                                  : Yes
  56. Forced                                   : No
  57. Text #1
  58. ID                                       : 3
  59. Format                                   : PGS
  60. Muxing mode                              : zlib
  61. Codec ID                                 : S_HDMV/PGS
  62. Codec ID/Info                            : Picture based subtitle format used on BDs/HD-DVDs
  63. Duration                                 : 1 h 25 min
  64. Bit rate                                 : 50.3 kb/s
  65. Count of elements                        : 2877
  66. Stream size                              : 30.9 MiB (1%)
  67. Title                                    : 英文
  68. Language                                 : English
  69. Default                                  : Yes
  70. Forced                                   : No
  71. Text #2
  72. ID                                       : 4
  73. Format                                   : PGS
  74. Muxing mode                              : zlib
  75. Codec ID                                 : S_HDMV/PGS
  76. Codec ID/Info                            : Picture based subtitle format used on BDs/HD-DVDs
  77. Duration                                 : 1 h 26 min
  78. Bit rate                                 : 43.1 kb/s
  79. Count of elements                        : 2926
  80. Stream size                              : 26.6 MiB (1%)
  81. Title                                    : 简体中文
  82. Language                                 : Chinese
  83. Default                                  : No
  84. Forced                                   : No
  85. Text #3
  86. ID                                       : 5
  87. Format                                   : PGS
  88. Muxing mode                              : zlib
  89. Codec ID                                 : S_HDMV/PGS
  90. Codec ID/Info                            : Picture based subtitle format used on BDs/HD-DVDs
  91. Duration                                 : 1 h 26 min
  92. Bit rate                                 : 44.7 kb/s
  93. Count of elements                        : 2926
  94. Stream size                              : 27.6 MiB (1%)
  95. Title                                    : 繁体中文
  96. Language                                 : Chinese
  97. Default                                  : No
  98. Forced                                   : No
  99. Text #4
  100. ID                                       : 6
  101. Format                                   : PGS
  102. Muxing mode                              : zlib
  103. Codec ID                                 : S_HDMV/PGS
  104. Codec ID/Info                            : Picture based subtitle format used on BDs/HD-DVDs
  105. Duration                                 : 1 h 26 min
  106. Bit rate                                 : 80.7 kb/s
  107. Count of elements                        : 2926
  108. Stream size                              : 49.8 MiB (1%)
  109. Title                                    : 简英双语
  110. Language                                 : Chinese
  111. Default                                  : No
  112. Forced                                   : No
  113. Text #5
  114. ID                                       : 7
  115. Format                                   : PGS
  116. Muxing mode                              : zlib
  117. Codec ID                                 : S_HDMV/PGS
  118. Codec ID/Info                            : Picture based subtitle format used on BDs/HD-DVDs
  119. Duration                                 : 1 h 26 min
  120. Bit rate                                 : 82.3 kb/s
  121. Count of elements                        : 2926
  122. Stream size                              : 50.8 MiB (1%)
  123. Title                                    : 繁英双语
  124. Language                                 : Chinese
  125. Default                                  : No
  126. Forced                                   : No
  127. Menu
  128. 00:00:00.000                             : en:00:00:00.000
  129. 00:10:02.602                             : en:00:10:02.602
  130. 00:20:03.202                             : en:00:20:03.202
  131. 00:30:03.802                             : en:00:30:03.802
  132. 00:40:04.402                             : en:00:40:04.402
  133. 00:50:05.002                             : en:00:50:05.002
  134. 01:00:05.602                             : en:01:00:05.602
  135. 01:10:06.202                             : en:01:10:06.202
  136. 01:20:06.802                             : en:01:20:06.802





此处一般会放置磁力链或种子下载链接,不过此链接需要注册会员才能看到,点击“立即注册”
磁力链下载【下载链接仅对注册会员开放,登陆后可见】
BT9527电影天堂 1、BT9527电影天堂提供的BT文件均来源于互联网抓取,只供网友学习交流、技术提升使用。
2、我们遵守BitTorrent点对点协议原则,任何版权问题请联系原资源发布商,我们不处理任何版权纠纷,谢谢!如有争议请联系邮箱:BT9527#hotmail.com(#换成@)
3、如果您发现某页面或地址有错误,请联系站长邮箱BT9527#hotmail.com(#换成@),我们会尽快处理。您的热心是对BT9527电影天堂最大的支持。
4、本站建议去正规影院观看电影以支持电影行业发展。
最新回复 (0)

你可以在 登录 or 注册 后,对此帖发表评论!

返回
发新帖