一次别离[国语音轨/中英字幕].A.Separation.2011.BluRay.1080p.x265.10bit.2Audio-MiniHD 5.10GB

版主小s 17天前 22

✔资源类型:暂未分类   ✔电影年份:2011   ✔电影地区:其他   ✔电影分类:剧情

◎译  名 一次别离 / 伊朗式分居(港) / 分居风暴(台) / 内达与西敏:一次别离 / 纳德和西敏:一次离别 / 纳德和西敏:一次别离 / 别离 / A Separation / Nader and Simin, a Separation / Jodaeiye Nader az Simin
◎片  名 ????? ???? ?? ?????
◎年  代 2011
◎产  地 伊朗 / 法国
◎类  别 剧情 / 家庭
◎语  言 波斯语
◎上映日期 2012-11-13(中国大陆) / 2011-02-15(柏林电影节) / 2011-03-16(伊朗)
◎IMDb链接 https://www.imdb.com/title/tt1832382/
◎豆瓣评分 8.8/10 (233950人评价)
◎豆瓣链接 https://movie.douban.com/subject/5964718/
◎片  长 123分钟
◎导  演 阿斯哈·法哈蒂 Asghar Farhadi (id:1275094)
◎编  剧 阿斯哈·法哈蒂 Asghar Farhadi (id:1275094)
◎演  员 佩曼·莫阿迪 Peyman Moadi (id:1314289)
       蕾拉·哈塔米 Leila Hatami (id:1286212)
       萨瑞·巴亚特 Sareh Bayat (id:1314287)
       沙哈布·侯赛尼 Shahab Hosseini (id:1175128)
       萨日娜·法哈蒂 Sarina Farhadi (id:1314288)
       梅里拉·扎雷伊 Merila Zare'i (id:1165578)
       阿里-阿萨哈·萨哈巴齐 Ali-Asghar Shahbazi (id:1314290)
       巴巴克·卡里米 Babak Karimi (id:1314291)
       吉米娅·侯赛伊妮 Kimia Hosseini (id:1316544)
       希尔·亚齐丹巴克什 Shirin Yazdanbakhsh (id:1371629)
       萨哈巴努·佐哈多 Sahabanu Zolghadr (id:1371633)
       伍凤春 Fengchun Wu (id:1335359)
       阿斯哈·法哈蒂 Asghar Farhadi (id:1275094)

◎简  介
  纳德(佩曼?莫阿迪 Peyman Moadi 饰)与西敏(蕾拉?哈塔米 Leila Hatami 饰)是一对夫妻,他们的女儿叫特梅(萨日娜?法哈蒂 Sarina Farhadi 饰)。西敏希望一家三口移居国外,但是纳德坚决反对,原因是纳德的父亲患有老年痴呆症需要照顾。两人为此对薄公堂,准备离婚,但是法院驳回了她的请求。西敏赌气回了娘家。西敏走后,纳德分身乏术,聘请了一位护工瑞茨(萨瑞?巴亚特 Sareh Bayat 饰)照顾父亲。但是,父亲如厕问题始终困扰瑞茨,依《古兰经》教义,她感到禁忌重重。瑞茨的女儿陪伴在她左右,也令她分神。几个回合下来,纳德某次回家发现,父亲被绑在床上,出离愤怒的他推倒了瑞茨。没想到怀孕的瑞茨竟然流产,瑞茨丈夫怒不可遏将纳德告上了法庭,他们各执一词,然而真相却出人意料……                                       
                                    本片在61届柏林电影节获金熊奖、最佳女演员和最佳男演员...

◎获奖情况 (共22项)
  第84届奥斯卡金像奖 (2012)
  最佳原创剧本(提名)
   └──阿斯哈·法哈蒂 (id:1275094)
  最佳外语片
   └──阿斯哈·法哈蒂 (id:1275094)

  第61届柏林国际电影节 (2011)
  金熊奖 最佳影片
   └──阿斯哈·法哈蒂 (id:1275094)
  银熊奖 最佳男演员
  银熊奖 最佳女演员

  第69届金球奖 (2012)
  电影类 最佳外语片
   └──阿斯哈·法哈蒂 (id:1275094)

  第56届意大利大卫奖 (2012)
  最佳外语片
   └──阿斯哈·法哈蒂 (id:1275094)

  第6届亚洲电影大奖 (2012)
  我最喜爱的男女主角 我最喜爱的女主角(提名)
   └──蕾拉·哈塔米 (id:1286212)
  最佳电影
  最佳导演
   └──阿斯哈·法哈蒂 (id:1275094)
  最佳女主角(提名)
   └──蕾拉·哈塔米 (id:1286212)
  最佳编剧
   └──阿斯哈·法哈蒂 (id:1275094)
  最佳剪接
   └──海德·萨菲-亚里 (id:1296446)

  第77届纽约影评人协会奖 (2011)
  最佳外语片

  第17届美国评论家选择电影奖 (2012)
  最佳外语片

  第27届美国独立精神奖 (2012)
  最佳国际电影
   └──阿斯哈·法哈蒂 (id:1275094)

  第32届波士顿影评人协会奖 (2011)
  最佳外语片(提名)

  第24届芝加哥影评人协会奖 (2011)
  最佳原创剧本(提名)
   └──阿斯哈·法哈蒂 (id:1275094)
  最佳外语片

  第45届堪萨斯影评人协会奖 (2012)
  最佳外语片

  第20届东南影评人协会奖 (2011)
  最佳外语片

  第2届豆瓣电影鑫像奖 (2012)
  鑫豆单元 最佳影片(外语)

  1. ##### MediaInfo ######
  2. General
  3. Unique ID                                : 192731306746986509021338451560434757401 (0x90FEB311AD7DC6B0AAD18B57B2B7EF19)
  4. Complete name                            : A.Separation.2011.BluRay.1080p.x265.10bit.2Audio-MiniHD.mkv
  5. Format                                   : Matroska
  6. Format version                           : Version 4
  7. File size                                : 5.10 GiB
  8. Duration                                 : 2 h 2 min
  9. Overall bit rate                         : 5 934 kb/s
  10. Encoded date                             : UTC 2017-07-10 01:45:45
  11. Writing application                      : mkvmerge v11.0.0 ('Alive') 64bit
  12. Writing library                          : libebml v1.3.4 + libmatroska v1.4.5
  13. Video
  14. ID                                       : 1
  15. Format                                   : HEVC
  16. Format/Info                              : High Efficiency Video Coding
  17. Codec ID                                 : V_MPEGH/ISO/HEVC
  18. Duration                                 : 2 h 2 min
  19. Bit rate                                 : 5 180 kb/s
  20. Width                                    : 1 920 pixels
  21. Height                                   : 1 038 pixels
  22. Display aspect ratio                     : 1.85:1
  23. Frame rate mode                          : Constant
  24. Frame rate                               : 23.976 (24000/1001/53354) FPS
  25. Bits/(Pixel*Frame)                       : 0.108
  26. Stream size                              : 4.45 GiB (87%)
  27. Default                                  : Yes
  28. Forced                                   : No
  29. Audio #1
  30. ID                                       : 2
  31. Format                                   : AC-3
  32. Format/Info                              : Audio Coding 3
  33. Commercial name                          : Dolby Digital
  34. Codec ID                                 : A_AC3
  35. Duration                                 : 2 h 2 min
  36. Bit rate mode                            : Constant
  37. Bit rate                                 : 448 kb/s
  38. Channel(s)                               : 3 channels
  39. Channel layout                           : L R C
  40. Sampling rate                            : 48.0 kHz
  41. Frame rate                               : 31.250 FPS (1536 SPF)
  42. Compression mode                         : Lossy
  43. Stream size                              : 394 MiB (8%)
  44. Language                                 : Persian
  45. Service kind                             : Complete Main
  46. Default                                  : Yes
  47. Forced                                   : No
  48. Audio #2
  49. ID                                       : 3
  50. Format                                   : AC-3
  51. Format/Info                              : Audio Coding 3
  52. Commercial name                          : Dolby Digital
  53. Codec ID                                 : A_AC3
  54. Duration                                 : 2 h 2 min
  55. Bit rate mode                            : Constant
  56. Bit rate                                 : 256 kb/s
  57. Channel(s)                               : 2 channels
  58. Channel layout                           : L R
  59. Sampling rate                            : 48.0 kHz
  60. Frame rate                               : 31.250 FPS (1536 SPF)
  61. Compression mode                         : Lossy
  62. Stream size                              : 225 MiB (4%)
  63. Language                                 : Chinese
  64. Service kind                             : Complete Main
  65. Default                                  : No
  66. Forced                                   : No
  67. Text #1
  68. ID                                       : 4
  69. Format                                   : PGS
  70. Muxing mode                              : zlib
  71. Codec ID                                 : S_HDMV/PGS
  72. Codec ID/Info                            : Picture based subtitle format used on BDs/HD-DVDs
  73. Duration                                 : 1 h 58 min
  74. Bit rate                                 : 9 383 b/s
  75. Count of elements                        : 3368
  76. Stream size                              : 7.98 MiB (0%)
  77. Language                                 : English
  78. Default                                  : Yes
  79. Forced                                   : No
  80. Text #2
  81. ID                                       : 5
  82. Format                                   : PGS
  83. Muxing mode                              : zlib
  84. Codec ID                                 : S_HDMV/PGS
  85. Codec ID/Info                            : Picture based subtitle format used on BDs/HD-DVDs
  86. Duration                                 : 1 h 58 min
  87. Bit rate                                 : 19.9 kb/s
  88. Count of elements                        : 3356
  89. Stream size                              : 16.9 MiB (0%)
  90. Language                                 : Chinese
  91. Default                                  : No
  92. Forced                                   : No
  93. Text #3
  94. ID                                       : 6
  95. Format                                   : PGS
  96. Muxing mode                              : zlib
  97. Codec ID                                 : S_HDMV/PGS
  98. Codec ID/Info                            : Picture based subtitle format used on BDs/HD-DVDs
  99. Duration                                 : 1 h 58 min
  100. Bit rate                                 : 20.5 kb/s
  101. Count of elements                        : 3356
  102. Stream size                              : 17.4 MiB (0%)
  103. Language                                 : Chinese
  104. Default                                  : No
  105. Forced                                   : No
  106. Menu
  107. 00:00:00.000                             : en:Chapter 01
  108. 00:09:41.413                             : en:Chapter 02
  109. 00:19:13.567                             : en:Chapter 03
  110. 00:28:08.103                             : en:Chapter 04
  111. 00:38:54.747                             : en:Chapter 05
  112. 00:48:54.264                             : en:Chapter 06
  113. 00:59:20.097                             : en:Chapter 07
  114. 01:10:09.245                             : en:Chapter 08
  115. 01:20:16.853                             : en:Chapter 09
  116. 01:27:57.813                             : en:Chapter 10
  117. 01:41:09.813                             : en:Chapter 11
  118. 01:52:26.447                             : en:Chapter 12





此处一般会放置磁力链或种子下载链接,不过此链接需要注册会员才能看到,点击“立即注册”
磁力链下载【下载链接仅对注册会员开放,登陆后可见】
BT9527电影天堂 1、BT9527电影天堂提供的BT文件均来源于互联网抓取,只供网友学习交流、技术提升使用。
2、我们遵守BitTorrent点对点协议原则,任何版权问题请联系原资源发布商,我们不处理任何版权纠纷,谢谢!如有争议请联系邮箱:BT9527#hotmail.com(#换成@)
3、如果您发现某页面或地址有错误,请联系站长邮箱BT9527#hotmail.com(#换成@),我们会尽快处理。您的热心是对BT9527电影天堂最大的支持。
4、本站建议去正规影院观看电影以支持电影行业发展。
最新回复 (0)

你可以在 登录 or 注册 后,对此帖发表评论!

返回
发新帖