远山恋人[中英字幕].The.Mountain.Between.Us.2017.BluRay.1080p.x265.10bit-MiniHD 2.93GB

版主小s 3月前 134

✔资源类型:暂未分类   ✔电影年份:2017   ✔电影地区:欧美   ✔电影分类:剧情

◎译  名 远山恋人 / 绝处逢山(台) / 冰峰逃生(港) / 爱情高峰险(港) / 我们之间的那座山 / 冰封逃生
◎片  名 The Mountain Between Us
◎年  代 2017
◎产  地 美国
◎类  别 剧情 / 爱情 / 冒险
◎语  言 英语
◎上映日期 2017-09-09(多伦多电影节) / 2017-10-06(美国)
◎IMDb链接 https://www.imdb.com/title/tt2226597/
◎豆瓣评分 6.0/10 (5225人评价)
◎豆瓣链接 https://movie.douban.com/subject/10519331/
◎片  长 112分钟
◎导  演 汉尼·阿布-阿萨德 Hany Abu-Assad (id:1055315)
◎编  剧 克里斯·韦兹 Chris Weitz (id:1036524)
       J·迈尔斯·古德洛 J. Mills Goodloe (id:1042254)
       查尔斯·马丁 Charles Martin (id:1382269)
◎演  员 伊德里斯·艾尔巴 Idris Elba (id:1049501)
       凯特·温丝莱特 Kate Winslet (id:1054446)
       德蒙特·莫罗尼 Dermot Mulroney (id:1040534)
       博·布里奇斯 Beau Bridges (id:1036456)
       露西娅·沃尔特斯 Lucia Walters (id:1321258)
       李·马贾道布 Lee Majdoub (id:1235840)
       玛茜·T·豪斯 Marci T. House (id:1100716)
       Raleigh Raleigh (id:1385824)
       Austin   Austin (id:1385823)
       迪伦·克拉克 Dylan Clark (id:1419902)
       拉民·贾瓦迪 Ramin Djawadi (id:1302385)
       蕾妮·厄尔里奇·卡尔夫斯 Renee Ehrlich Kalfus (id:1288038)
       C·迈克尔·尼利 C. Michael Neely (id:1410102)

◎简  介
  本(伊德瑞斯·艾尔巴 Idris Elba 饰)是一名医术高明的外科医生,深受患者和领导的信赖。业余时间,本喜欢攀山,这是他唯一的,也是最执着的兴趣爱好。某日,本乘坐飞机打算回到工作的城市,一场规模不小的手术在等待着他。和本搭乘同一班飞机的,还有一位名叫艾许莉(凯特·温丝莱特 Kate Winslet 饰)的记者,她迫不及待的想要抵达目的地,因为第二天,将在那里举行她期待已久的婚礼。                                    
                                突然降临的暴风雪打乱了两人的计划,他们准备搭乘的航班取消了。无论如何也一定要准时回城的本和艾许莉决定搭乘私人飞机,哪知道驾驶员飞了一半心脏病突发去世,两人所乘坐的飞机坠毁在了深山老林之中。
  1. ##### MediaInfo ######
  2. General
  3. Unique ID                                : 221596520055710985687990987615845853672 (0xA6B5EFF67AC64BA4BE140C7C9C49A9E8)
  4. Complete name                            : The.Mountain.Between.Us.2017.BluRay.1080p.x265.10bit-MiniHD.mkv
  5. Format                                   : Matroska
  6. Format version                           : Version 4
  7. File size                                : 2.93 GiB
  8. Duration                                 : 1 h 51 min
  9. Overall bit rate                         : 3 746 kb/s
  10. Encoded date                             : UTC 2017-12-21 13:40:24
  11. Writing application                      : mkvmerge v18.0.0 ('Apricity') 64-bit
  12. Writing library                          : libebml v1.3.5 + libmatroska v1.4.8
  13. Video
  14. ID                                       : 1
  15. Format                                   : HEVC
  16. Format/Info                              : High Efficiency Video Coding
  17. Format profile                           : Main 10@L4@Main
  18. Codec ID                                 : V_MPEGH/ISO/HEVC
  19. Duration                                 : 1 h 51 min
  20. Bit rate                                 : 3 075 kb/s
  21. Width                                    : 1 920 pixels
  22. Height                                   : 804 pixels
  23. Display aspect ratio                     : 2.40:1
  24. Frame rate mode                          : Constant
  25. Frame rate                               : 23.976 (24000/1001/53354) FPS
  26. Color space                              : YUV
  27. Chroma subsampling                       : 4:2:0
  28. Bit depth                                : 10 bits
  29. Bits/(Pixel*Frame)                       : 0.083
  30. Stream size                              : 2.40 GiB (82%)
  31. Writing library                          : x265 2.5+2-18fa144d453e:[Windows][GCC 7.1.0][64 bit] 10bit
  32. Encoding settings                        : cpuid=533541173503 / frame-threads=3 / numa-pools=8 / wpp / no-pmode / no-pme / no-psnr / no-ssim / log-level=2 / input-csp=1 / input-res=1920x804 / interlace=0 / total-frames=160858 / level-idc=0 / high-tier=1 / uhd-bd=0 / ref=5 / no-allow-non-conformance / no-repeat-headers / annexb / no-aud / no-hrd / info / hash=0 / no-temporal-layers / no-open-gop / min-keyint=1 / keyint=360 / bframes=8 / b-adapt=2 / b-pyramid / bframe-bias=0 / rc-lookahead=40 / lookahead-slices=4 / NTMzNTQ=uuDQuD2mJt9fsCf / scenecut=40 / no-intra-refresh / ctu=32 / min-cu-size=8 / rect / no-amp / max-tu-size=16 / tu-inter-depth=2 / tu-intra-depth=2 / limit-tu=4 / rdoq-level=1 / dynamic-rd=0.00 / ssim-rd / signhide / no-tskip / nr-intra=0 / nr-inter=0 / no-constrained-intra / no-strong-intra-smoothing / max-merge=3 / limit-refs=2 / limit-modes / me=3 / subme=5 / merange=25 / temporal-mvp / weightp / weightb / no-analyze-src-pics / deblock=-1:-1 / no-sao / no-sao-non-deblock / rd=4 / no-early-skip / rskip / no-fast-intra / no-tskip-fast / no-cu-lossless / b-intra / rdpenalty=1 / psy-rd=0.00 / psy-rdoq=3.00 / no-rd-refine / analysis-reuse-mode=0 / no-lossless / cbqpoffs=-2 / crqpoffs=-2 / rc=crf / crf=17.0 / qcomp=0.65 / qpstep=4 / stats-write=0 / stats-read=0 / ipratio=1.40 / pbratio=1.30 / aq-mode=2 / aq-strength=0.80 / cutree / zone-count=0 / no-strict-cbr / qg-size=16 / no-rc-grain / qpmax=69 / qpmin=0 / no-const-vbv / sar=1 / overscan=0 / videoformat=5 / range=0 / colorprim=1 / transfer=2 / colormatrix=2 / chromaloc=0 / display-window=0 / max-cll=0,0 / min-luma=0 / max-luma=1023 / log2-max-poc-lsb=8 / vui-timing-info / vui-hrd-info / slices=1 / opt-qp-pps / opt-ref-list-length-pps / no-multi-pass-opt-rps / scenecut-bias=0.05 / no-opt-cu-delta-qp / no-aq-motion / no-hdr / no-hdr-opt / no-dhdr10-opt / analysis-reuse-level=5 / scale-factor=0 / refine-intra=0 / refine-inter=0 / refine-mv=0 / no-limit-sao / ctu-info=0
  33. Default                                  : Yes
  34. Forced                                   : No
  35. Color range                              : Limited
  36. Color primaries                          : BT.709
  37. Audio
  38. ID                                       : 2
  39. Format                                   : AC-3
  40. Format/Info                              : Audio Coding 3
  41. Commercial name                          : Dolby Digital
  42. Codec ID                                 : A_AC3
  43. Duration                                 : 1 h 51 min
  44. Bit rate mode                            : Constant
  45. Bit rate                                 : 640 kb/s
  46. Channel(s)                               : 6 channels
  47. Channel layout                           : L R C LFE Ls Rs
  48. Sampling rate                            : 48.0 kHz
  49. Frame rate                               : 31.250 FPS (1536 SPF)
  50. Compression mode                         : Lossy
  51. Stream size                              : 512 MiB (17%)
  52. Service kind                             : Complete Main
  53. Default                                  : Yes
  54. Forced                                   : No
  55. Text #1
  56. ID                                       : 3
  57. Format                                   : PGS
  58. Muxing mode                              : zlib
  59. Codec ID                                 : S_HDMV/PGS
  60. Codec ID/Info                            : Picture based subtitle format used on BDs/HD-DVDs
  61. Duration                                 : 1 h 47 min
  62. Bit rate                                 : 20.4 kb/s
  63. Count of elements                        : 2134
  64. Stream size                              : 15.7 MiB (1%)
  65. Language                                 : English
  66. Default                                  : No
  67. Forced                                   : No
  68. Text #2
  69. ID                                       : 4
  70. Format                                   : PGS
  71. Muxing mode                              : zlib
  72. Codec ID                                 : S_HDMV/PGS
  73. Codec ID/Info                            : Picture based subtitle format used on BDs/HD-DVDs
  74. Duration                                 : 1 h 47 min
  75. Bit rate                                 : 18.3 kb/s
  76. Count of elements                        : 2152
  77. Stream size                              : 14.1 MiB (0%)
  78. Language                                 : Chinese
  79. Default                                  : Yes
  80. Forced                                   : No
  81. Text #3
  82. ID                                       : 5
  83. Format                                   : PGS
  84. Muxing mode                              : zlib
  85. Codec ID                                 : S_HDMV/PGS
  86. Codec ID/Info                            : Picture based subtitle format used on BDs/HD-DVDs
  87. Duration                                 : 1 h 51 min
  88. Bit rate                                 : 16.2 kb/s
  89. Count of elements                        : 1966
  90. Stream size                              : 12.9 MiB (0%)
  91. Language                                 : Chinese
  92. Default                                  : No
  93. Forced                                   : No
  94. Menu
  95. 00:00:00.000                             : en:Chapter 01
  96. 00:02:58.595                             : en:Chapter 03
  97. 00:08:52.782                             : en:Chapter 05
  98. 00:13:15.377                             : en:Chapter 07
  99. 00:16:21.480                             : en:Chapter 09
  100. 00:21:36.253                             : en:Chapter 11
  101. 00:26:51.985                             : en:Chapter 13
  102. 00:31:53.369                             : en:Chapter 15
  103. 00:38:56.083                             : en:Chapter 17
  104. 00:43:45.372                             : en:Chapter 19
  105. 00:51:04.311                             : en:Chapter 21
  106. 00:57:28.736                             : en:Chapter 23
  107. 01:01:22.720                             : en:Chapter 25
  108. 01:04:39.417                             : en:Chapter 27
  109. 01:07:41.057                             : en:Chapter 29
  110. 01:11:06.428                             : en:Chapter 31
  111. 01:14:56.533                             : en:Chapter 33
  112. 01:19:15.125                             : en:Chapter 35
  113. 01:23:48.398                             : en:Chapter 37
  114. 01:27:52.475                             : en:Chapter 39
  115. 01:32:13.569                             : en:Chapter 41
  116. 01:35:41.652                             : en:Chapter 43
  117. 01:41:48.268                             : en:Chapter 45
  118. 01:45:22.482                             : en:Chapter 47
  119. 01:51:48.868                             : en:Chapter 49





此处一般会放置磁力链或种子下载链接,不过此链接需要注册会员才能看到,点击“立即注册”
磁力链下载【下载链接仅对注册会员开放,登陆后可见】
BT9527电影天堂 1、BT9527电影天堂提供的BT文件均来源于互联网抓取,只供网友学习交流、技术提升使用。
2、我们遵守BitTorrent点对点协议原则,任何版权问题请联系原资源发布商,我们不处理任何版权纠纷,谢谢!如有争议请联系邮箱:BT9527#hotmail.com(#换成@)
3、如果您发现某页面或地址有错误,请联系站长邮箱BT9527#hotmail.com(#换成@),我们会尽快处理。您的热心是对BT9527电影天堂最大的支持。
4、本站建议去正规影院观看电影以支持电影行业发展。
最新回复 (0)

你可以在 登录 or 注册 后,对此帖发表评论!

返回
发新帖