看不见的客人[国语音轨/中文字幕].The.Invisible.Guest.2016.BluRay.1080p.x265.10bit.2Audio-MiniHD 2.26GB

版主小s 3月前 133

✔资源类型:暂未分类   ✔电影年份:2016   ✔电影地区:其他   ✔电影分类:剧情

◎标  题 看不见的客人
◎译  名 死无对证(港) / 布局(台) / The Invisible Guest
◎片  名 Contratiempo
◎年  代 2016
◎产  地 西班牙
◎类  别 剧情 / 悬疑 / 惊悚 / 犯罪
◎语  言 西班牙语
◎上映日期 2017-09-15(中国大陆) / 2016-09-23(奇幻电影节) / 2017-01-06(西班牙)
◎IMDb评分 8.1/10 (163667人评价)
◎IMDb链接 https://www.imdb.com/title/tt4857264/
◎豆瓣评分 8.8/10 (1066060人评价)
◎豆瓣链接 https://movie.douban.com/subject/26580232/
◎片  长 106分钟
◎导  演 奥里奥尔·保罗 Oriol Paulo
◎编  剧 奥里奥尔·保罗 Oriol Paulo
◎演  员 马里奥·卡萨斯 Mario Casas
       阿娜·瓦格纳 Ana Wagener
       何塞·科罗纳多 José Coronado
       巴巴拉·莱涅 Bárbara Lennie
       弗兰塞斯克·奥雷利亚 Francesc Orella
       帕科·图斯 Paco Tous
       大卫·塞尔瓦斯 David Selvas
       伊尼戈·加斯特西 Iñigo Gastesi
       圣·耶拉莫斯 San Yélamos
       马内尔·杜维索 Manel Dueso
       布兰卡·马丁内斯 Blanca Martínez
       佩雷·布拉索 Pere Brasó
       霍尔迪·布鲁内特 Jordi Brunet
       鲍比·冈萨雷斯 Bobby Gonzalez
       玛蒂娜·乌尔塔多 Martina Hurtado
       安妮可·韦尔茨 Annick Weerts
       贝茜·特内兹 Betsy Túrnez
       克里斯蒂安·巴伦西亚 Cristian Valencia
       露丝·略皮斯 Ruth Llopis
       蔡元 Yuan Cai
       费尔南多·贝拉斯克斯 Fernando Velázquez

◎标  签 悬疑 / 推理 / 犯罪 / 西班牙 / 烧脑 / 人性 / 剧情 / 心理

◎简  介
  艾德里安(马里奥·卡萨斯 Mario Casas 饰)经营着一间科技公司,事业蒸蒸日上,家中有美丽贤惠的妻子和活泼可爱的女儿,事业家庭双丰收的他是旁人羡慕的对象。然而,野心勃勃的艾德里安并未珍惜眼前来之不易的生活,一直以来,他和一位名叫劳拉(芭芭拉·蓝妮 Bárbara Lennie 饰)的女摄影师保持着肉体关系。                                    
                                某日幽会过后,两人驱车离开别墅,却在路上发生了车祸,为了掩盖事件的真相,两人决定将在车祸中死去的青年丹尼尔联同他的车一起沉入湖底。之后,劳拉遇见了一位善良的老人,老人将劳拉坏掉的车拉回家中修理,然而,令劳拉没有想到的是,这位老人,竟然就是丹尼尔的父亲。
  1. ##### MediaInfo ######
  2. General
  3. Unique ID                                : 213152342363428090563289631621867689955 (0xA05BA5DBF2DD1E608D718FEDFA50D7E3)
  4. Complete name                            : The.Invisible.Guest.2016.BluRay.1080p.x265.10bit.2Audio-MiniHD.mkv
  5. Format                                   : Matroska
  6. Format version                           : Version 4
  7. File size                                : 2.26 GiB
  8. Duration                                 : 1 h 46 min
  9. Overall bit rate                         : 3 045 kb/s
  10. Encoded date                             : UTC 2017-09-18 11:06:59
  11. Writing application                      : mkvmerge v11.0.0 ('Alive') 64bit
  12. Writing library                          : libebml v1.3.4 + libmatroska v1.4.5
  13. Video
  14. ID                                       : 1
  15. Format                                   : HEVC
  16. Format/Info                              : High Efficiency Video Coding
  17. Format profile                           : Main 10@L4@Main
  18. Codec ID                                 : V_MPEGH/ISO/HEVC
  19. Duration                                 : 1 h 46 min
  20. Bit rate                                 : 1 633 kb/s
  21. Width                                    : 1 920 pixels
  22. Height                                   : 804 pixels
  23. Display aspect ratio                     : 2.40:1
  24. Frame rate mode                          : Constant
  25. Frame rate                               : 24.000 FPS
  26. Color space                              : YUV
  27. Chroma subsampling                       : 4:2:0
  28. Bit depth                                : 10 bits
  29. Bits/(Pixel*Frame)                       : 0.044
  30. Stream size                              : 1.21 GiB (54%)
  31. Writing library                          : x265 2.3+24-a0eee4b41185:[Windows][GCC 6.3.0][64 bit] 10bit
  32. Encoding settings                        : cpuid=533541173503 / frame-threads=6 / numa-pools=36 / wpp / no-pmode / no-pme / no-psnr / no-ssim / log-level=2 / input-csp=1 / input-res=1920x804 / interlace=0 / total-frames=152712 / level-idc=0 / high-tier=1 / uhd-bd=0 / ref=5 / no-allow-non-conformance / no-repeat-headers / annexb / no-aud / no-hrd / info / hash=0 / no-temporal-layers / no-open-gop / min-keyint=1 / keyint=360 / bframes=8 / b-adapt=2 / b-pyramid / bframe-bias=0 / rc-lookahead=60 / lookahead-slices=4 / NTMzNTQ=uuDQuD2mJt9fsCf / scenecut=40 / no-intra-refresh / ctu=32 / min-cu-size=8 / rect / no-amp / max-tu-size=16 / tu-inter-depth=2 / tu-intra-depth=2 / limit-tu=4 / rdoq-level=2 / dynamic-rd=0.00 / signhide / no-tskip / nr-intra=0 / nr-inter=0 / no-constrained-intra / no-strong-intra-smoothing / max-merge=3 / limit-refs=1 / limit-modes / me=3 / subme=5 / merange=25 / temporal-mvp / weightp / weightb / no-analyze-src-pics / deblock=-1:-1 / no-sao / no-sao-non-deblock / rd=4 / no-early-skip / rskip / no-fast-intra / no-tskip-fast / no-cu-lossless / b-intra / rdpenalty=1 / psy-rd=0.00 / psy-rdoq=5.00 / no-rd-refine / analysis-mode=0 / no-lossless / cbqpoffs=-2 / crqpoffs=-2 / rc=crf / crf=17.0 / qcomp=0.65 / qpstep=4 / stats-write=0 / stats-read=0 / ipratio=1.30 / pbratio=1.20 / aq-mode=2 / aq-strength=0.80 / cutree / zone-count=0 / no-strict-cbr / qg-size=16 / no-rc-grain / qpmax=69 / qpmin=0 / sar=0 / overscan=0 / videoformat=5 / range=0 / colorprim=1 / transfer=2 / colormatrix=2 / chromaloc=0 / display-window=0 / max-cll=0,0 / min-luma=0 / max-luma=1023 / log2-max-poc-lsb=8 / vui-timing-info / vui-hrd-info / slices=1 / opt-qp-pps / opt-ref-list-length-pps / no-multi-pass-opt-rps / scenecut-bias=0.05 / no-opt-cu-delta-qp / no-aq-motion / no-hdr / no-hdr-opt / refine-level=5
  33. Default                                  : Yes
  34. Forced                                   : No
  35. Color range                              : Limited
  36. Color primaries                          : BT.709
  37. Audio #1
  38. ID                                       : 2
  39. Format                                   : AC-3
  40. Format/Info                              : Audio Coding 3
  41. Commercial name                          : Dolby Digital
  42. Codec ID                                 : A_AC3
  43. Duration                                 : 1 h 46 min
  44. Bit rate mode                            : Constant
  45. Bit rate                                 : 640 kb/s
  46. Channel(s)                               : 6 channels
  47. Channel layout                           : L R C LFE Ls Rs
  48. Sampling rate                            : 48.0 kHz
  49. Frame rate                               : 31.250 FPS (1536 SPF)
  50. Compression mode                         : Lossy
  51. Stream size                              : 485 MiB (21%)
  52. Language                                 : Spanish
  53. Service kind                             : Complete Main
  54. Default                                  : Yes
  55. Forced                                   : No
  56. Audio #2
  57. ID                                       : 3
  58. Format                                   : AC-3
  59. Format/Info                              : Audio Coding 3
  60. Commercial name                          : Dolby Digital
  61. Codec ID                                 : A_AC3
  62. Duration                                 : 1 h 46 min
  63. Bit rate mode                            : Constant
  64. Bit rate                                 : 640 kb/s
  65. Channel(s)                               : 6 channels
  66. Channel layout                           : L R C LFE Ls Rs
  67. Sampling rate                            : 48.0 kHz
  68. Frame rate                               : 31.250 FPS (1536 SPF)
  69. Compression mode                         : Lossy
  70. Delay relative to video                  : 26 ms
  71. Stream size                              : 486 MiB (21%)
  72. Language                                 : Chinese
  73. Service kind                             : Complete Main
  74. Default                                  : No
  75. Forced                                   : No
  76. Text #1
  77. ID                                       : 4
  78. Format                                   : PGS
  79. Muxing mode                              : zlib
  80. Codec ID                                 : S_HDMV/PGS
  81. Codec ID/Info                            : Picture based subtitle format used on BDs/HD-DVDs
  82. Duration                                 : 1 h 38 min
  83. Bit rate                                 : 16.4 kb/s
  84. Count of elements                        : 2774
  85. Stream size                              : 11.5 MiB (0%)
  86. Language                                 : Chinese
  87. Default                                  : No
  88. Forced                                   : No
  89. Text #2
  90. ID                                       : 5
  91. Format                                   : PGS
  92. Muxing mode                              : zlib
  93. Codec ID                                 : S_HDMV/PGS
  94. Codec ID/Info                            : Picture based subtitle format used on BDs/HD-DVDs
  95. Duration                                 : 1 h 38 min
  96. Bit rate                                 : 17.2 kb/s
  97. Count of elements                        : 2774
  98. Stream size                              : 12.1 MiB (1%)
  99. Language                                 : Chinese
  100. Default                                  : No
  101. Forced                                   : No
  102. Text #3
  103. ID                                       : 6
  104. Format                                   : PGS
  105. Muxing mode                              : zlib
  106. Codec ID                                 : S_HDMV/PGS
  107. Codec ID/Info                            : Picture based subtitle format used on BDs/HD-DVDs
  108. Duration                                 : 1 h 38 min
  109. Bit rate                                 : 16.4 kb/s
  110. Count of elements                        : 2774
  111. Stream size                              : 11.5 MiB (0%)
  112. Language                                 : Chinese
  113. Default                                  : No
  114. Forced                                   : No
  115. Text #4
  116. ID                                       : 7
  117. Format                                   : PGS
  118. Muxing mode                              : zlib
  119. Codec ID                                 : S_HDMV/PGS
  120. Codec ID/Info                            : Picture based subtitle format used on BDs/HD-DVDs
  121. Duration                                 : 1 h 38 min
  122. Bit rate                                 : 17.2 kb/s
  123. Count of elements                        : 2774
  124. Stream size                              : 12.1 MiB (1%)
  125. Language                                 : Chinese
  126. Default                                  : No
  127. Forced                                   : No
  128. Text #5
  129. ID                                       : 8
  130. Format                                   : PGS
  131. Muxing mode                              : zlib
  132. Codec ID                                 : S_HDMV/PGS
  133. Codec ID/Info                            : Picture based subtitle format used on BDs/HD-DVDs
  134. Duration                                 : 1 h 40 min
  135. Bit rate                                 : 17.0 kb/s
  136. Count of elements                        : 2301
  137. Stream size                              : 12.3 MiB (1%)
  138. Language                                 : Chinese
  139. Default                                  : No
  140. Forced                                   : No
  141. Text #6
  142. ID                                       : 9
  143. Format                                   : PGS
  144. Muxing mode                              : zlib
  145. Codec ID                                 : S_HDMV/PGS
  146. Codec ID/Info                            : Picture based subtitle format used on BDs/HD-DVDs
  147. Duration                                 : 1 h 40 min
  148. Bit rate                                 : 17.1 kb/s
  149. Count of elements                        : 2301
  150. Stream size                              : 12.3 MiB (1%)
  151. Language                                 : Chinese
  152. Default                                  : No
  153. Forced                                   : No
  154. Text #7
  155. ID                                       : 10
  156. Format                                   : PGS
  157. Muxing mode                              : zlib
  158. Codec ID                                 : S_HDMV/PGS
  159. Codec ID/Info                            : Picture based subtitle format used on BDs/HD-DVDs
  160. Duration                                 : 1 h 40 min
  161. Bit rate                                 : 21.3 kb/s
  162. Count of elements                        : 2301
  163. Stream size                              : 15.3 MiB (1%)
  164. Language                                 : Chinese
  165. Default                                  : No
  166. Forced                                   : No
  167. Text #8
  168. ID                                       : 11
  169. Format                                   : PGS
  170. Muxing mode                              : zlib
  171. Codec ID                                 : S_HDMV/PGS
  172. Codec ID/Info                            : Picture based subtitle format used on BDs/HD-DVDs
  173. Duration                                 : 1 h 40 min
  174. Bit rate                                 : 17.8 kb/s
  175. Count of elements                        : 2301
  176. Stream size                              : 12.8 MiB (1%)
  177. Language                                 : Chinese
  178. Default                                  : No
  179. Forced                                   : No
  180. Menu
  181. 00:00:00.000                             : en:Chapter 01
  182. 00:08:11.291                             : en:Chapter 02
  183. 00:16:51.583                             : en:Chapter 03
  184. 00:24:57.458                             : en:Chapter 04
  185. 00:33:23.750                             : en:Chapter 05
  186. 00:42:03.875                             : en:Chapter 06
  187. 00:50:58.500                             : en:Chapter 07
  188. 01:00:14.833                             : en:Chapter 08
  189. 01:08:56.708                             : en:Chapter 09
  190. 01:18:00.750                             : en:Chapter 10
  191. 01:22:04.958                             : en:Chapter 11
  192. 01:30:27.375                             : en:Chapter 12





此处一般会放置磁力链或种子下载链接,不过此链接需要注册会员才能看到,点击“立即注册”
磁力链下载【下载链接仅对注册会员开放,登陆后可见】
BT9527电影天堂 1、BT9527电影天堂提供的BT文件均来源于互联网抓取,只供网友学习交流、技术提升使用。
2、我们遵守BitTorrent点对点协议原则,任何版权问题请联系原资源发布商,我们不处理任何版权纠纷,谢谢!如有争议请联系邮箱:BT9527#hotmail.com(#换成@)
3、如果您发现某页面或地址有错误,请联系站长邮箱BT9527#hotmail.com(#换成@),我们会尽快处理。您的热心是对BT9527电影天堂最大的支持。
4、本站建议去正规影院观看电影以支持电影行业发展。
最新回复 (0)

你可以在 登录 or 注册 后,对此帖发表评论!

返回