第七封印[中英字幕].The.Seventh.Seal.1957.BluRay.1080p.x265.10bit-MiniHD 7.63GB

版主小s 3月前 107

✔资源类型:暂未分类   ✔电影年份:更 早   ✔电影地区:其他   ✔电影分类:剧情

◎标  题 第七封印
◎译  名 The Seventh Seal
◎片  名 Det sjunde inseglet
◎年  代 1957
◎产  地 瑞典
◎类  别 剧情 / 奇幻
◎语  言 瑞典语 / 拉丁语
◎上映日期 1957-02-16(瑞典)
◎IMDb评分 8.2/10 (177439人评价)
◎IMDb链接 https://www.imdb.com/title/tt0050976/
◎豆瓣评分 8.5/10 (45118人评价)
◎豆瓣链接 https://movie.douban.com/subject/1293234/
◎片  长 96分钟
◎导  演 英格玛·伯格曼 Ingmar Bergman
◎编  剧 英格玛·伯格曼 Ingmar Bergman
◎演  员 古纳尔·布约恩施特兰德 Gunnar Björnstrand
       本特·埃切罗特 Bengt Ekerot
       尼尔斯·波普 Nils Poppe
       马克斯·冯·叙多夫 Max von Sydow
       毕比·安德松 Bibi Andersson
       英加·吉尔 Inga Gill
       毛德·汉松 Maud Hansson
       因加·朗格里 Inga Landgré
       古内尔·林德布洛姆 Gunnel Lindblom
       贝蒂尔·安德贝里 Bertil Anderberg
       安德斯·埃克 Anders Ek
       奥克·弗里德尔 Åke Fridell
       古纳尔·奥尔松 Gunnar Olsson
       埃里克·斯特兰德马克 Erik Strandmark
       斯滕·阿登斯坦 Sten Ardenstam
       哈里·阿斯克隆德 Harry Asklund
       本克特-奥克·本特松 Benkt-Åke Benktsson
       凯瑟琳·贝里 Catherine Berg
       莱娜·贝格曼 Lena Bergman
       托尔·博龙 Tor Borong
       古德龙·布罗斯特 Gudrun Brost
       本特·伊尔贝里 Bengt Gillberg
       拉尔斯·格兰贝里 Lars Granberg
       贡勒格·哈格贝里 Gunlög Hagberg
       托尔·伊塞达尔 Tor Isedal
       乌尔夫·约翰松 Ulf Johansson
       乌诺·拉松 Uno Larsson
       伦纳特·利亚 Lennart Lilja
       拉尔斯·林德 Lars Lind
       戈东·勒韦纳德勒 Gordon Löwenadler
       莫娜·马姆 Mona Malm
       约瑟夫·诺尔曼 Josef Norman
       约斯塔·普吕塞柳斯 Gösta Prüzelius
       乔治斯卡斯特德 Georg Skarstedt
       朗纳·瑟尔曼 Ragnar Sörman
       伦纳特·托伦 Lennart Tollén
       尼尔斯·维滕 Nils Whiten
       贡纳·费舍尔 Gunnar Fischer

◎标  签 英格玛·伯格曼 / 宗教 / 瑞典 / 经典 / 1957 / 伯格曼 / IngmarBergman / 欧洲

◎简  介
  海滩边,巨浪滔天,英武的骑士布洛克(马克斯•冯•西多 Max von Sydow 饰)与黑衣死神(本特•埃切罗特 Bengt Ekerot 饰)摆下了一盘生死棋局。在下棋的过程中,骑士在回顾自己的人生,所见所闻暗合圣经的图景。十四世纪十字军东征后期,欧洲大陆瘟疫蔓延,民不聊生。布洛克曾遇到过马戏团的一对夫妻,丈夫笃信神明,无比虔诚,妻子则更加现实,唯命是从。他们的相濡以沫让幸福唾手可得。骑士在树林中邂逅了铁匠夫妇。铁匠非常粗鲁,他的妻子很是风骚,他们在树林里对着路人演出双簧,仿佛一对可笑的傀儡。最后,在经历过集体膜拜的祭奠仪式后,武士和他的朋友们再次遇到了死神,曾经的无助与恐惧,愤怒与怀疑,都化作了人生的诘问……                                    
                                本片获第10届戛纳电影节评委会大奖。
  1. ##### MediaInfo ######
  2. General
  3. Unique ID                                : 203115042943725393743518158493895990522 (0x98CE88CA3FDD4AED8DB3B38549E19CFA)
  4. Complete name                            : The.Seventh.Seal.1957.BluRay.1080p.x265.10bit-MiniHD.mkv
  5. Format                                   : Matroska
  6. Format version                           : Version 4
  7. File size                                : 7.63 GiB
  8. Duration                                 : 1 h 37 min
  9. Overall bit rate                         : 11.2 Mb/s
  10. Encoded date                             : UTC 2017-08-25 01:04:32
  11. Writing application                      : mkvmerge v11.0.0 ('Alive') 64bit
  12. Writing library                          : libebml v1.3.4 + libmatroska v1.4.5
  13. Video
  14. ID                                       : 1
  15. Format                                   : HEVC
  16. Format/Info                              : High Efficiency Video Coding
  17. Codec ID                                 : V_MPEGH/ISO/HEVC
  18. Duration                                 : 1 h 37 min
  19. Bit rate                                 : 10.6 Mb/s
  20. Width                                    : 1 440 pixels
  21. Height                                   : 1 080 pixels
  22. Display aspect ratio                     : 4:3
  23. Frame rate mode                          : Constant
  24. Frame rate                               : 23.976 (24000/1001/53354) FPS
  25. Bits/(Pixel*Frame)                       : 0.286
  26. Stream size                              : 7.26 GiB (95%)
  27. Default                                  : Yes
  28. Forced                                   : No
  29. Audio
  30. ID                                       : 2
  31. Format                                   : AC-3
  32. Format/Info                              : Audio Coding 3
  33. Commercial name                          : Dolby Digital
  34. Codec ID                                 : A_AC3
  35. Duration                                 : 1 h 37 min
  36. Bit rate mode                            : Constant
  37. Bit rate                                 : 320 kb/s
  38. Channel(s)                               : 1 channel
  39. Channel layout                           : C
  40. Sampling rate                            : 48.0 kHz
  41. Frame rate                               : 31.250 FPS (1536 SPF)
  42. Compression mode                         : Lossy
  43. Stream size                              : 224 MiB (3%)
  44. Language                                 : Swedish
  45. Service kind                             : Complete Main
  46. Default                                  : Yes
  47. Forced                                   : No
  48. Text #1
  49. ID                                       : 3
  50. Format                                   : PGS
  51. Muxing mode                              : zlib
  52. Codec ID                                 : S_HDMV/PGS
  53. Codec ID/Info                            : Picture based subtitle format used on BDs/HD-DVDs
  54. Language                                 : English
  55. Default                                  : Yes
  56. Forced                                   : No
  57. Text #2
  58. ID                                       : 4
  59. Format                                   : PGS
  60. Muxing mode                              : zlib
  61. Codec ID                                 : S_HDMV/PGS
  62. Codec ID/Info                            : Picture based subtitle format used on BDs/HD-DVDs
  63. Language                                 : Chinese
  64. Default                                  : No
  65. Forced                                   : No
  66. Text #3
  67. ID                                       : 5
  68. Format                                   : PGS
  69. Muxing mode                              : zlib
  70. Codec ID                                 : S_HDMV/PGS
  71. Codec ID/Info                            : Picture based subtitle format used on BDs/HD-DVDs
  72. Language                                 : Chinese
  73. Default                                  : No
  74. Forced                                   : No
  75. Text #4
  76. ID                                       : 6
  77. Format                                   : PGS
  78. Muxing mode                              : zlib
  79. Codec ID                                 : S_HDMV/PGS
  80. Codec ID/Info                            : Picture based subtitle format used on BDs/HD-DVDs
  81. Language                                 : Chinese
  82. Default                                  : No
  83. Forced                                   : No
  84. Menu
  85. 00:00:00.000                             : en:Chapter 01
  86. 00:01:33.092                             : en:Chapter 02
  87. 00:08:35.890                             : en:Chapter 03
  88. 00:16:31.156                             : en:Chapter 04
  89. 00:27:39.532                             : en:Chapter 05
  90. 00:32:41.292                             : en:Chapter 06
  91. 00:36:49.207                             : en:Chapter 07
  92. 00:43:16.135                             : en:Chapter 08
  93. 00:49:03.940                             : en:Chapter 09
  94. 00:58:51.069                             : en:Chapter 10
  95. 01:02:37.336                             : en:Chapter 11
  96. 01:10:08.954                             : en:Chapter 12
  97. 01:18:59.735                             : en:Chapter 13
  98. 01:26:22.135                             : en:Chapter 14
  99. 01:34:22.573                             : en:Chapter 15





此处一般会放置磁力链或种子下载链接,不过此链接需要注册会员才能看到,点击“立即注册”
磁力链下载【下载链接仅对注册会员开放,登陆后可见】
BT9527电影天堂 1、BT9527电影天堂提供的BT文件均来源于互联网抓取,只供网友学习交流、技术提升使用。
2、我们遵守BitTorrent点对点协议原则,任何版权问题请联系原资源发布商,我们不处理任何版权纠纷,谢谢!如有争议请联系邮箱:BT9527#hotmail.com(#换成@)
3、如果您发现某页面或地址有错误,请联系站长邮箱BT9527#hotmail.com(#换成@),我们会尽快处理。您的热心是对BT9527电影天堂最大的支持。
4、本站建议去正规影院观看电影以支持电影行业发展。
最新回复 (0)

你可以在 登录 or 注册 后,对此帖发表评论!

返回