暗夜博士:莫比亚斯[简繁英字幕].Morbius.2022.1080p.BluRay.DTS.x265-10bit-ENTHD 8.57GB

版主小s 3月前 122

✔资源类型:暂未分类   ✔电影年份:2022   ✔电影地区:欧美   ✔电影分类:动作

◎译  名 暗夜博士:莫比亚斯 / 莫比亚斯 / 魔比煞(港) / 魔比斯(台) / 莫比亚斯:暗夜博士 / 吸血鬼莫比亚斯 / Morbius the Living Vampire
◎片  名 Morbius
◎年  代 2022
◎产  地 美国
◎类  别 动作 / 科幻 / 惊悚 / 恐怖 / 冒险
◎语  言 英语 / 西班牙语 / 俄语
◎上映日期 2022-04-01(美国)
◎IMDb链接 https://www.imdb.com/title/tt5108870/
◎豆瓣评分 5.7/10 (24912人评价)
◎豆瓣链接 https://movie.douban.com/subject/27199850/
◎片  长 104分钟
◎导  演 丹尼尔·伊斯皮诺萨 Daniel Espinosa (id:1000735)
◎编  剧 马特·萨兹马 Matt Sazama (id:1340742)
       伯克·沙普利斯 Burk Sharpless (id:1340743)
       罗伊·托马斯 Roy Thomas (id:1042277)
       吉尔·凯恩 Gil Kane (id:1112670)
◎演  员 杰瑞德·莱托 Jared Leto (id:1013764)
       马特·史密斯 Matt Smith (id:1197648)
       阿德里娅·阿霍纳 Adria Arjona (id:1348880)
       杰瑞德·哈里斯 Jared Harris (id:1049700)
       泰瑞斯·吉布森 Tyrese Gibson (id:1010486)
       艾尔·马德里加尔 Al Madrigal (id:1433413)
       迈克尔·基顿 Michael Keaton (id:1049486)
       查理·肖特韦尔 Charlie Shotwell (id:1363353)
       汤姆·福布斯 Tom Forbes (id:1434668)
       克拉拉·罗萨杰 Clara Rosager (id:1411126)
       克里·约翰逊 Corey Johnson (id:1045054)
       宾利·卡鲁 Bentley Kalu (id:1340239)
       阿奇·雷诺 Archie Renaux (id:1426494)
       乔乔·马卡里 Jojo Macari (id:1419156)
       亚伯拉罕·波波拉 Abraham Popoola (id:1457672)
       巴里·艾尔德 Barry Aird (id:1368194)
       克里斯·雷曼 Chris Ryman (id:1192122)
       马诺伊·阿南德 Manoj Anand (id:1395012)
       卡德罗莎·奥娜·卡罗尔  (id:1459808)
       露丝·霍洛克斯 Ruth Horrocks (id:1397361)
       贝恩·科拉科 Bern Colla?o (id:1394212)
       丹尼尔·厄根 Daniel Eghan (id:1367202)
       菲利普·加斯科因 Philip Gascoyne (id:1443992)
       通恰伊·古奈什 Tuncay Gunes (id:1391308)
       豪尔赫·莱昂·马丁内斯 Jorge Leon Martinez (id:1340070)
       尼克·欧文福特 Nick Owenford (id:1362807)
       贾格·帕特尔 Jag Patel (id:1392994)
       黛博拉·洛克 Deborah Rock (id:1395006)
       阿图尔·夏尔马 Atul Sharma (id:1397360)
       戴维娜·西塔拉姆 Davina Sitaram (id:1407303)
       吉米·斯达 Jimmy Star (id:1273873)
       斯图尔特·惠兰 Stuart Whelan (id:1447200)
       亚当·柯林斯 Adam Collins (id:1413373)
       迪索·拉莫斯 Diezel Ramos (id:1341036)
       J·K·西蒙斯 J.K. Simmons (id:1147911)
       伊斯雷尔·鲁兹 Israel Ruiz (id:1199375)
       辛迪·埃文斯 Cindy Evans (id:1427039)

◎简  介
  《暗夜博士:莫比亚斯》将首次把漫威宇宙中最另类的暗黑超级英雄莫比亚斯呈现于大银幕。由奥斯卡最佳男配得主杰瑞德·莱托饰演的莫比亚斯博士身患一种罕见的血液疾病,命不久矣的他决心找到治疗方法拯救其他同病患者。为此,他孤注一掷试图根除疾病。一开始一切似乎都成功了,但他的内心深处有一股黑暗却无端释放。善念能否压制住邪恶,还是莫比亚斯会屈服于这神秘的欲望?
  1. ##### MediaInfo ######
  2. General
  3. Unique ID                                : 288243227250854640396065044403457710736 (0xD8D9A052C457802FD47C518437695A90)
  4. Complete name                            : Morbius.2022.1080p.BluRay.DTS.x265-10bit-ENTHD.mkv
  5. Format                                   : Matroska
  6. Format version                           : Version 4
  7. File size                                : 8.57 GiB
  8. Duration                                 : 1 h 44 min
  9. Overall bit rate                         : 11.8 Mb/s
  10. Movie name                               : Morbius 2022 1080p BluRay DTS x265-10bit-HDS
  11. Encoded date                             : UTC 2022-06-12 12:28:37
  12. Writing application                      : mkvmerge v38.0.0 ('The Silent Type') 64-bit
  13. Writing library                          : libebml v1.3.9 + libmatroska v1.5.2
  14. Video
  15. ID                                       : 1
  16. Format                                   : HEVC
  17. Format/Info                              : High Efficiency Video Coding
  18. Format profile                           : Main 10@L5.1@High
  19. Codec ID                                 : V_MPEGH/ISO/HEVC
  20. Duration                                 : 1 h 44 min
  21. Bit rate                                 : 10.1 Mb/s
  22. Width                                    : 1 920 pixels
  23. Height                                   : 804 pixels
  24. Display aspect ratio                     : 2.40:1
  25. Frame rate mode                          : Constant
  26. Frame rate                               : 23.976 (24000/1001/53354) FPS
  27. Color space                              : YUV
  28. Chroma subsampling                       : 4:2:0
  29. Bit depth                                : 10 bits
  30. Bits/(Pixel*Frame)                       : 0.274
  31. Stream size                              : 7.38 GiB (86%)
  32. Title                                    : yusuble@HDSky
  33. Writing library                          : x265 - H.265/HEVC codec
  34. Default                                  : Yes
  35. Forced                                   : No
  36. Audio
  37. ID                                       : 2
  38. Format                                   : DTS
  39. Format/Info                              : Digital Theater Systems
  40. Codec ID                                 : A_DTS
  41. Duration                                 : 1 h 44 min
  42. Bit rate mode                            : Constant
  43. Bit rate                                 : 1 509 kb/s
  44. Channel(s)                               : 6 channels
  45. Channel layout                           : C L R Ls Rs LFE
  46. Sampling rate                            : 48.0 kHz
  47. Frame rate                               : 93.750 FPS (512 SPF)
  48. Bit depth                                : 24 bits
  49. Compression mode                         : Lossy
  50. Stream size                              : 1.10 GiB (13%)
  51. Title                                    : English
  52. Language                                 : English
  53. Default                                  : Yes
  54. Forced                                   : No
  55. Text #1
  56. ID                                       : 3
  57. Format                                   : PGS
  58. Muxing mode                              : zlib
  59. Codec ID                                 : S_HDMV/PGS
  60. Codec ID/Info                            : Picture based subtitle format used on BDs/HD-DVDs
  61. Duration                                 : 1 h 37 min
  62. Bit rate                                 : 74.2 kb/s
  63. Count of elements                        : 3996
  64. Stream size                              : 51.6 MiB (1%)
  65. Title                                    : CHS&ENG
  66. Language                                 : Chinese
  67. Default                                  : Yes
  68. Forced                                   : No
  69. Text #2
  70. ID                                       : 4
  71. Format                                   : PGS
  72. Muxing mode                              : zlib
  73. Codec ID                                 : S_HDMV/PGS
  74. Codec ID/Info                            : Picture based subtitle format used on BDs/HD-DVDs
  75. Duration                                 : 1 h 37 min
  76. Bit rate                                 : 54.5 kb/s
  77. Count of elements                        : 3971
  78. Stream size                              : 37.9 MiB (0%)
  79. Title                                    : CHS
  80. Language                                 : Chinese
  81. Default                                  : No
  82. Forced                                   : No
  83. Text #3
  84. ID                                       : 5
  85. Format                                   : PGS
  86. Muxing mode                              : zlib
  87. Codec ID                                 : S_HDMV/PGS
  88. Codec ID/Info                            : Picture based subtitle format used on BDs/HD-DVDs
  89. Duration                                 : 1 h 37 min
  90. Bit rate                                 : 74.5 kb/s
  91. Count of elements                        : 3995
  92. Stream size                              : 51.8 MiB (1%)
  93. Title                                    : CHT&ENG
  94. Language                                 : Chinese
  95. Default                                  : No
  96. Forced                                   : No
  97. Text #4
  98. ID                                       : 6
  99. Format                                   : PGS
  100. Muxing mode                              : zlib
  101. Codec ID                                 : S_HDMV/PGS
  102. Codec ID/Info                            : Picture based subtitle format used on BDs/HD-DVDs
  103. Duration                                 : 1 h 37 min
  104. Bit rate                                 : 54.9 kb/s
  105. Count of elements                        : 3971
  106. Stream size                              : 38.2 MiB (0%)
  107. Title                                    : CHT
  108. Language                                 : Chinese
  109. Default                                  : No
  110. Forced                                   : No
  111. Text #5
  112. ID                                       : 7
  113. Format                                   : PGS
  114. Muxing mode                              : zlib
  115. Codec ID                                 : S_HDMV/PGS
  116. Codec ID/Info                            : Picture based subtitle format used on BDs/HD-DVDs
  117. Duration                                 : 1 h 38 min
  118. Bit rate                                 : 29.0 kb/s
  119. Count of elements                        : 2323
  120. Stream size                              : 20.5 MiB (0%)
  121. Title                                    : ENG
  122. Language                                 : English
  123. Default                                  : No
  124. Forced                                   : No
  125. Menu
  126. 00:00:00.000                             : en:Chapter 01
  127. 00:05:06.932                             : en:Chapter 02
  128. 00:10:15.824                             : en:Chapter 03
  129. 00:16:57.350                             : en:Chapter 04
  130. 00:21:36.754                             : en:Chapter 05
  131. 00:27:58.385                             : en:Chapter 06
  132. 00:32:58.476                             : en:Chapter 07
  133. 00:38:04.157                             : en:Chapter 08
  134. 00:43:17.762                             : en:Chapter 09
  135. 00:48:58.102                             : en:Chapter 10
  136. 00:55:10.557                             : en:Chapter 11
  137. 01:01:11.877                             : en:Chapter 12
  138. 01:05:28.424                             : en:Chapter 13
  139. 01:13:07.049                             : en:Chapter 14
  140. 01:20:06.385                             : en:Chapter 15
  141. 01:26:32.729                             : en:Chapter 16
  142. 01:37:22.795                             : en:Chapter 17





此处一般会放置磁力链或种子下载链接,不过此链接需要注册会员才能看到,点击“立即注册”
磁力链下载【下载链接仅对注册会员开放,登陆后可见】
BT9527电影天堂 1、BT9527电影天堂提供的BT文件均来源于互联网抓取,只供网友学习交流、技术提升使用。
2、我们遵守BitTorrent点对点协议原则,任何版权问题请联系原资源发布商,我们不处理任何版权纠纷,谢谢!如有争议请联系邮箱:BT9527#hotmail.com(#换成@)
3、如果您发现某页面或地址有错误,请联系站长邮箱BT9527#hotmail.com(#换成@),我们会尽快处理。您的热心是对BT9527电影天堂最大的支持。
4、本站建议去正规影院观看电影以支持电影行业发展。
最新回复 (0)

你可以在 登录 or 注册 后,对此帖发表评论!

返回