精英部队[中英字幕].Tropa.de.Elite.2007.BluRay.1080p.x265.10bit-MiniHD 9.79GB

版主小s 3月前 121

✔资源类型:暂未分类   ✔电影年份:2007   ✔电影地区:其他   ✔电影分类:剧情

◎标  题 精英部队
◎译  名 精锐暴队(港) / 精锐部队 / 菁英部队 / The Elite Squad / Elite Squad
◎片  名 Tropa de Elite
◎年  代 2007
◎产  地 巴西 / 美国 / 阿根廷
◎类  别 剧情 / 动作 / 惊悚 / 犯罪
◎语  言 葡萄牙语
◎上映日期 2007-08-17(里约首映) / 2007-10-12(巴西)
◎IMDb评分 8/10 (101427人评价)
◎IMDb链接 https://www.imdb.com/title/tt0861739/
◎豆瓣评分 8.0/10 (43092人评价)
◎豆瓣链接 https://movie.douban.com/subject/2284851/
◎片  长 115 分钟
◎导  演 何塞·帕迪里亚 José Padilha
◎编  剧 布罗里欧·曼托伐尼 Bráulio Mantovani
       罗德里戈·皮门特尔 Rodrigo Pimentel
       约翰·凯林 John Kaylin
       André Batista André Batista
       Luiz Eduardo Soares Luiz Eduardo Soares
       何塞·帕迪里亚 José Padilha
◎演  员 瓦格纳·马拉 Wagner Moura
       卡约·胡恩奎拉 Caio Junqueira
       安德烈·拉米罗 André Ramiro
       玛利亚·瑞贝罗 Maria Ribeiro
       费尔南达·马查多 Fernanda Machado
       Paulo Vilela Paulo Vilela
       娜塔莉亚·迪尔 Nathalia Dill
        Rod Carvalho
       米尔黑·考塔兹 Milhem Cortaz
       马赛罗·艾斯克莱尔 Marcelo Escorel
       苏纳·佩雷兹 Suzana Pires
       Cintia Rosa Cintia Rosa
       马塞罗·瓦列 Marcelo Valle
       费尔南达·弗雷塔斯 Fernanda de Freitas
       奥托 Otto Jr.
       罗贝塔·桑提亚哥 Roberta Santiago
        Bento Ribeiro
       塞尔莫·费尔南德斯 Thelmo Fernandes
       何塞·帕迪里亚 José Padilha
       马科斯·普拉多 Marcos Prado
       佩德罗·布罗夫曼 Pedro Bromfman
       卢拉·卡瓦略 Lula Carvalho
       丹尼尔·雷森德 Daniel Rezende
       Tulé Peak Tulé Peak
       Claudia Kopke Claudia Kopke
       马丁·马西亚斯 Martin Macias
       Malu Miranda Malu Miranda
       菲尔·尼尔森 Phil Neilson

◎标  签 巴西 / 犯罪 / 动作 / 巴西电影 / 精锐部队 / 2007 / 暴力 / 剧情

◎简  介
  号称世界上最危险的城市——巴西里约热内卢,警匪枪战时有发生。恶徒肆意横行,死亡如同家常便饭,甚至警匪沆瀣一气,危害城市。但就在这个混乱所在,却有一支刚正严明的部队横空出世。特别警察军事行动部队(Special Police Operation Battalion)凭借其果敢凶狠的办案作风而令匪徒闻风丧胆。                                    
                                时1997年,教皇即将来此视察,高层要求纳斯西蒙(Wagner Moura 饰)所率领的这支精英部队在最短时间内肃清贫民窟内的毒品链。厌倦刀光血影的纳斯西蒙将心思放在了妻子和尚未出世的婴儿身上,他将任务交给了两个热血且充满理想的年青人——内图(Caio Junqueira 饰)和马提阿斯(André Ramiro 饰)。他们俩都不满警察队伍的腐败,决心在精英部队中大展身手……                                    
                                本片荣获2008年柏林国际电影节金熊奖。
  1. ##### MediaInfo ######
  2. General
  3. Unique ID                                : 239213004411525893084078202353179568464 (0xB3F6BFB336201987807B0ED35FCE2950)
  4. Complete name                            : Tropa.de.Elite.2007.BluRay.1080p.x265.10bit-MiniHD.mkv
  5. Format                                   : Matroska
  6. Format version                           : Version 4
  7. File size                                : 9.79 GiB
  8. Duration                                 : 1 h 55 min
  9. Overall bit rate                         : 12.2 Mb/s
  10. Encoded date                             : UTC 2017-10-12 09:53:41
  11. Writing application                      : mkvmerge v11.0.0 ('Alive') 64bit
  12. Writing library                          : libebml v1.3.4 + libmatroska v1.4.5
  13. Video
  14. ID                                       : 1
  15. Format                                   : HEVC
  16. Format/Info                              : High Efficiency Video Coding
  17. Codec ID                                 : V_MPEGH/ISO/HEVC
  18. Duration                                 : 1 h 55 min
  19. Bit rate                                 : 11.5 Mb/s
  20. Width                                    : 1 920 pixels
  21. Height                                   : 1 080 pixels
  22. Display aspect ratio                     : 16:9
  23. Frame rate mode                          : Constant
  24. Frame rate                               : 23.976 (24000/1001/53354) FPS
  25. Bits/(Pixel*Frame)                       : 0.230
  26. Stream size                              : 9.22 GiB (94%)
  27. Default                                  : Yes
  28. Forced                                   : No
  29. Audio
  30. ID                                       : 2
  31. Format                                   : AC-3
  32. Format/Info                              : Audio Coding 3
  33. Commercial name                          : Dolby Digital
  34. Codec ID                                 : A_AC3
  35. Duration                                 : 1 h 55 min
  36. Bit rate mode                            : Constant
  37. Bit rate                                 : 640 kb/s
  38. Channel(s)                               : 6 channels
  39. Channel layout                           : L R C LFE Ls Rs
  40. Sampling rate                            : 48.0 kHz
  41. Frame rate                               : 31.250 FPS (1536 SPF)
  42. Compression mode                         : Lossy
  43. Stream size                              : 527 MiB (5%)
  44. Language                                 : Portuguese
  45. Service kind                             : Complete Main
  46. Default                                  : Yes
  47. Forced                                   : No
  48. Text #1
  49. ID                                       : 3
  50. Format                                   : PGS
  51. Muxing mode                              : zlib
  52. Codec ID                                 : S_HDMV/PGS
  53. Codec ID/Info                            : Picture based subtitle format used on BDs/HD-DVDs
  54. Duration                                 : 1 h 47 min
  55. Bit rate                                 : 24.4 kb/s
  56. Count of elements                        : 4070
  57. Stream size                              : 18.8 MiB (0%)
  58. Language                                 : English
  59. Default                                  : Yes
  60. Forced                                   : No
  61. Text #2
  62. ID                                       : 4
  63. Format                                   : VobSub
  64. Muxing mode                              : zlib
  65. Codec ID                                 : S_VOBSUB
  66. Codec ID/Info                            : Picture based subtitle format used on DVDs
  67. Duration                                 : 1 h 48 min
  68. Bit rate                                 : 2 576 b/s
  69. Count of elements                        : 1649
  70. Stream size                              : 2.00 MiB (0%)
  71. Language                                 : English
  72. Default                                  : No
  73. Forced                                   : No
  74. Text #3
  75. ID                                       : 5
  76. Format                                   : VobSub
  77. Muxing mode                              : zlib
  78. Codec ID                                 : S_VOBSUB
  79. Codec ID/Info                            : Picture based subtitle format used on DVDs
  80. Duration                                 : 1 h 49 min
  81. Bit rate                                 : 2 083 b/s
  82. Count of elements                        : 1637
  83. Stream size                              : 1.64 MiB (0%)
  84. Language                                 : Chinese
  85. Default                                  : No
  86. Forced                                   : No
  87. Text #4
  88. ID                                       : 6
  89. Format                                   : PGS
  90. Muxing mode                              : zlib
  91. Codec ID                                 : S_HDMV/PGS
  92. Codec ID/Info                            : Picture based subtitle format used on BDs/HD-DVDs
  93. Duration                                 : 1 h 47 min
  94. Bit rate                                 : 16.4 kb/s
  95. Count of elements                        : 3266
  96. Stream size                              : 12.7 MiB (0%)
  97. Language                                 : Chinese
  98. Default                                  : No
  99. Forced                                   : No
  100. Text #5
  101. ID                                       : 7
  102. Format                                   : PGS
  103. Muxing mode                              : zlib
  104. Codec ID                                 : S_HDMV/PGS
  105. Codec ID/Info                            : Picture based subtitle format used on BDs/HD-DVDs
  106. Duration                                 : 1 h 47 min
  107. Bit rate                                 : 17.0 kb/s
  108. Count of elements                        : 3266
  109. Stream size                              : 13.1 MiB (0%)
  110. Language                                 : Chinese
  111. Default                                  : No
  112. Forced                                   : No
  113. Menu
  114. 00:00:00.000                             : en:00:00:00.000
  115. 00:08:42.522                             : en:00:08:42.522
  116. 00:16:24.984                             : en:00:16:24.984
  117. 00:25:32.531                             : en:00:25:32.531
  118. 00:30:43.842                             : en:00:30:43.842
  119. 00:38:05.283                             : en:00:38:05.283
  120. 00:46:55.813                             : en:00:46:55.813
  121. 00:55:49.346                             : en:00:55:49.346
  122. 01:00:57.654                             : en:01:00:57.654
  123. 01:06:06.963                             : en:01:06:06.963
  124. 01:10:55.251                             : en:01:10:55.251
  125. 01:14:59.495                             : en:01:14:59.495
  126. 01:22:20.853                             : en:01:22:20.853
  127. 01:29:45.380                             : en:01:29:45.380
  128. 01:36:00.755                             : en:01:36:00.755
  129. 01:39:38.973                             : en:01:39:38.973
  130. 01:45:10.304                             : en:01:45:10.304
  131. 01:50:34.628                             : en:01:50:34.628





此处一般会放置磁力链或种子下载链接,不过此链接需要注册会员才能看到,点击“立即注册”
磁力链下载【下载链接仅对注册会员开放,登陆后可见】
BT9527电影天堂 1、BT9527电影天堂提供的BT文件均来源于互联网抓取,只供网友学习交流、技术提升使用。
2、我们遵守BitTorrent点对点协议原则,任何版权问题请联系原资源发布商,我们不处理任何版权纠纷,谢谢!如有争议请联系邮箱:BT9527#hotmail.com(#换成@)
3、如果您发现某页面或地址有错误,请联系站长邮箱BT9527#hotmail.com(#换成@),我们会尽快处理。您的热心是对BT9527电影天堂最大的支持。
4、本站建议去正规影院观看电影以支持电影行业发展。
最新回复 (0)

你可以在 登录 or 注册 后,对此帖发表评论!

返回