天赐灵机[中文字幕].Ron's.Gone.Wrong.2021.2160p.HDR.UHD.BluRay.DD5.1.x265-10bit-ENTHD 11.64GB

版主小s 12天前 16

✔资源类型:BD-4K   ✔电影年份:2021   ✔电影地区:欧美   ✔电影分类:喜剧

◎译  名 天赐灵机 / 罗恩失灵了 / 失灵脑朋友(港) / 天兵阿荣(台)
◎片  名 Ron's Gone Wrong
◎年  代 2021
◎产  地 美国 / 英国 / 加拿大
◎类  别 喜剧 / 科幻 / 动画 / 冒险
◎语  言 英语
◎上映日期 2021-10-22(美国)
◎IMDb链接 https://www.imdb.com/title/tt7504818/
◎豆瓣评分 7.7/10 (19934人评价)
◎豆瓣链接 https://movie.douban.com/subject/33437580/
◎片  长 106分钟
◎导  演 莎拉·史密斯 Sarah Smith (id:1365486)
       让·菲利普·维恩 Jean-Philippe Vine (id:1463417)
       奥克塔维奥·E·罗德里格斯 Octavio E. Rodriguez (id:1463262)
◎编  剧 彼得·贝恩汉姆 Peter Baynham (id:1278131)
       莎拉·史密斯 Sarah Smith (id:1365486)
       查德·戈麦斯·克雷西 Chad Gomez Creasey (id:1196714)
       卡罗尔·海基宁 Carol Heikkinen (id:1321255)
       乔夫·罗德基 Geoff Rodkey (id:1147605)
◎演  员 杰克·迪伦·格雷泽 Jack Dylan Grazer (id:1380979)
       扎克·加利凡纳基斯 Zach Galifianakis (id:1027137)
       艾德·赫尔姆斯 Ed Helms (id:1004575)
       奥利维娅·科尔曼 Olivia Colman (id:1004900)
       罗伯·德兰尼 Rob Delaney (id:1268159)
       贾斯蒂斯·史密斯 Justice Smith (id:1350981)
       凯莉·坎特罗尔 Kylie Cantrall (id:1463263)
       里卡多·乌尔塔多 Ricardo Hurtado (id:1413949)
       卡伦·麦卡锡 Cullen McCarthy (id:1437997)
       艾娃·摩士 Ava Morse (id:1463264)
       马库斯·斯克里布纳 Marcus Scribner (id:1343621)
       托马斯·巴布萨卡 Thomas Barbusca (id:1359647)
       宾利·卡鲁 Bentley Kalu (id:1340239)
       约翰·麦克米兰 John MacMillan (id:1319678)
       梅根·马克兹柯 Megan Maczko (id:1232304)
       卢比·瓦克斯 Ruby Wax (id:1000432)
       大卫·曼金 David Menkin (id:1120458)
       利亚姆·佩恩 Liam Payne (id:1323295)
       弗卢拉·博格 Flula Borg (id:1349608)
       大卫·布伦斯 David Burrows (id:1365896)
       优素福·凯尔科尔 Youssef Kerkour (id:1170098)
       菲尔·拉马 Phil LaMarr (id:1007036)
       伊恩·麦基 Iain McKee (id:1421309)
       安德烈·鲁滨孙 Andre Robinson (id:1402818)
       杰登·桑德 Jadon Sand (id:1350619)
       Adam Tandy Adam Tandy (id:1302835)
       薇薇安·叶 ViviAnn Yee (id:1371494)
       朱利安·赞恩 Julian Zane (id:1427377)
        Tenley Molzahn (id:1263185)
       Pierre Bouvier Pierre Bouvier (id:1221338)
       Brianna Denski Brianna Denski (id:1455498)
       海莉·威廉姆斯 Hayley Williams (id:1260453)
        Matthew Stafford (id:1263440)
       Mike Sorrentino Mike Sorrentino (id:1325493)
       阿伦·艾弗森 Allen Iverson (id:1018260)
       亚当·杜里兹 Adam Duritz (id:1023030)
       马克·麦克格拉斯 Mark McGrath (id:1032316)
       詹姆斯·马斯洛 James Maslow (id:1349156)
       金·罗德斯 Kim Rhodes (id:1144542)
       马克·霍普斯 Mark Hoppus (id:1095136)
       小迪奥 iann dior (id:1454654)
       Steve Harwell Steve Harwell (id:1210598)
        Adam Lazzara (id:1243987)
       蒂姆·莱斯-奥克斯利 Tim Rice-Oxley (id:1019789)
       泰森·里特 Tyson Ritter (id:1045016)
        Terrell Suggs (id:1226683)
       奥黛丽·谢 Audrey Hsieh (id:1465125)
       亨利·杰克曼 Henry Jackman (id:1315635)

◎简  介
  巴尼是一个有着社交障碍的中学生。罗恩,则是他全新的行走、交流、数字连接的设备。罗恩是巴尼“开箱即用的最好朋友”。在社交媒体的背景下,罗恩的搞笑故障,将他们带入了一场动感十足的旅程,男孩和机器人在这段旅程中接受了真实友谊的美妙和混乱。

◎获奖情况 (共2项)
  第49届动画安妮奖 (2022)
  最佳制作(提名)
  最佳角色设计(提名)

  1. ##### MediaInfo ######
  2. General
  3. Unique ID                                : 81037700636439495302655662200414829045 (0x3CF74B1E18F2E702B961F6AD8AB879F5)
  4. Complete name                            : Ron's.Gone.Wrong.2021.2160p.HDR.UHD.BluRay.DD5.1.x265-10bit-ENTHD.mkv
  5. Format                                   : Matroska
  6. Format version                           : Version 4
  7. File size                                : 11.6 GiB
  8. Duration                                 : 1 h 46 min
  9. Overall bit rate                         : 15.6 Mb/s
  10. Movie name                               : Ron's Gone Wrong 2021 2160p HDR UHD BluRay TrueHD 7.1 Atmos x265-10bit-HDS
  11. Encoded date                             : UTC 2022-06-12 00:23:58
  12. Writing application                      : mkvmerge v67.0.0 ('Under Stars') 64-bit
  13. Writing library                          : libebml v1.4.2 + libmatroska v1.6.4
  14. Video
  15. ID                                       : 1
  16. Format                                   : HEVC
  17. Format/Info                              : High Efficiency Video Coding
  18. Format profile                           : Main 10@L5.1@High
  19. HDR format                               : SMPTE ST 2086, HDR10 compatible
  20. Codec ID                                 : V_MPEGH/ISO/HEVC
  21. Duration                                 : 1 h 46 min
  22. Bit rate                                 : 14.9 Mb/s
  23. Width                                    : 3 840 pixels
  24. Height                                   : 1 604 pixels
  25. Display aspect ratio                     : 2.40:1
  26. Frame rate mode                          : Constant
  27. Frame rate                               : 23.976 (24000/1001/53354) FPS
  28. Color space                              : YUV
  29. Chroma subsampling                       : 4:2:0
  30. Bit depth                                : 10 bits
  31. Bits/(Pixel*Frame)                       : 0.101
  32. Stream size                              : 11.1 GiB (96%)
  33. Title                                    : @HDSky
  34. Writing library                          : x265 - H.265/HEVC codec
  35. Default                                  : Yes
  36. Forced                                   : No
  37. Color range                              : Limited
  38. Color primaries                          : BT.2020
  39. Transfer characteristics                 : PQ
  40. Matrix coefficients                      : BT.2020 non-constant
  41. Mastering display color primaries        : Display P3
  42. Mastering display luminance              : min: 0.0050 cd/m2, max: 1000 cd/m2
  43. Maximum Content Light Level              : 1000 cd/m2
  44. Maximum Frame-Average Light Level        : 400 cd/m2
  45. Audio
  46. ID                                       : 2
  47. Format                                   : AC-3
  48. Format/Info                              : Audio Coding 3
  49. Commercial name                          : Dolby Digital
  50. Codec ID                                 : A_AC3
  51. Duration                                 : 1 h 46 min
  52. Bit rate mode                            : Constant
  53. Bit rate                                 : 640 kb/s
  54. Channel(s)                               : 6 channels
  55. Channel layout                           : L R C LFE Ls Rs
  56. Sampling rate                            : 48.0 kHz
  57. Frame rate                               : 31.250 FPS (1536 SPF)
  58. Compression mode                         : Lossy
  59. Stream size                              : 489 MiB (4%)
  60. Title                                    : English
  61. Language                                 : English
  62. Service kind                             : Complete Main
  63. Default                                  : Yes
  64. Forced                                   : No
  65. Text #1
  66. ID                                       : 3
  67. Format                                   : PGS
  68. Muxing mode                              : zlib
  69. Codec ID                                 : S_HDMV/PGS
  70. Codec ID/Info                            : Picture based subtitle format used on BDs/HD-DVDs
  71. Duration                                 : 1 h 39 min
  72. Bit rate                                 : 45.4 kb/s
  73. Count of elements                        : 4134
  74. Stream size                              : 32.2 MiB (0%)
  75. Title                                    : CHS
  76. Language                                 : Chinese
  77. Default                                  : Yes
  78. Forced                                   : No
  79. Text #2
  80. ID                                       : 4
  81. Format                                   : PGS
  82. Muxing mode                              : zlib
  83. Codec ID                                 : S_HDMV/PGS
  84. Codec ID/Info                            : Picture based subtitle format used on BDs/HD-DVDs
  85. Duration                                 : 1 h 39 min
  86. Bit rate                                 : 46.2 kb/s
  87. Count of elements                        : 4134
  88. Stream size                              : 32.8 MiB (0%)
  89. Title                                    : CHT
  90. Language                                 : Chinese
  91. Default                                  : Yes
  92. Forced                                   : No
  93. Menu
  94. 00:00:00.000                             : en:第 01 章
  95. 00:07:58.520                             : en:第 02 章
  96. 00:14:35.416                             : en:第 03 章
  97. 00:21:32.750                             : en:第 04 章
  98. 00:29:58.296                             : en:第 05 章
  99. 00:35:12.277                             : en:第 06 章
  100. 00:40:05.111                             : en:第 07 章
  101. 00:45:50.081                             : en:第 08 章
  102. 00:52:35.694                             : en:第 09 章
  103. 00:58:08.276                             : en:第 10 章
  104. 01:04:16.186                             : en:第 11 章
  105. 01:11:24.155                             : en:第 12 章
  106. 01:19:45.364                             : en:第 13 章
  107. 01:23:37.221                             : en:第 14 章
  108. 01:28:54.663                             : en:第 15 章
  109. 01:32:59.282                             : en:第 16 章
  110. 01:37:36.350                             : en:第 17 章
  111. 01:40:03.998                             : en:第 18 章





此处一般会放置磁力链或种子下载链接,不过此链接需要注册会员才能看到,点击“立即注册”
磁力链下载【下载链接仅对注册会员开放,登陆后可见】
BT9527电影天堂 1、BT9527电影天堂提供的BT文件均来源于互联网抓取,只供网友学习交流、技术提升使用。
2、我们遵守BitTorrent点对点协议原则,任何版权问题请联系原资源发布商,我们不处理任何版权纠纷,谢谢!如有争议请联系邮箱:BT9527#hotmail.com(#换成@)
3、如果您发现某页面或地址有错误,请联系站长邮箱BT9527#hotmail.com(#换成@),我们会尽快处理。您的热心是对BT9527电影天堂最大的支持。
4、本站建议去正规影院观看电影以支持电影行业发展。
最新回复 (0)

你可以在 登录 or 注册 后,对此帖发表评论!

返回
发新帖