待到重逢时[中英字幕].Till.We.Meet.Again.2016.BluRay.1080p.x265.10bit-MiniHD 2.89GB

版主小s 21天前 23

✔资源类型:暂未分类   ✔电影年份:2017   ✔电影地区:其他   ✔电影分类:剧情

◎标  题 待到重逢时
◎译  名 直到我们再次相遇
◎片  名 Till We Meet Again
◎年  代 2017
◎产  地 加拿大
◎类  别 剧情 / 冒险
◎语  言 英语
◎上映日期 2016-11-25(加拿大)
◎IMDb评分 6.2/10 (4071人评价)
◎IMDb链接 https://www.imdb.com/title/tt2461340/
◎豆瓣评分 5.9/10 (378人评价)
◎豆瓣链接 https://movie.douban.com/subject/27118063/
◎片  长 105分钟(加拿大)
◎演  员 维他亚·潘斯林加姆 Vithaya Pansringarm

◎标  签 爱情 / 加拿大 / 文艺 / 剧情 / 2017 / 泰国 / 加拿大电影 / 青春

◎简  介
    艾瑞克(约翰·马特森 Johan Matton 饰)是一名作家,有一个固定的伴侣乔娜(Linnea Larsdotter 饰),两人之间的感情十分深厚。艾瑞克和乔娜踏上了前往泰国的旅途,然而这段本该充满了欢乐和幸福的旅程却被争吵与悲伤所代替。一气之下,艾瑞克和乔娜决定分头行动。                                    
                                  在旅途中,乔娜邂逅了名为大卫(埃姆雷斯·库珀 Emrhys Cooper 饰)的男子,大卫曾是乔娜青梅竹马的玩伴,这意外的重逢让乔娜回忆起了过去的往事。那边厢,艾瑞克遇见了三个背包客杰米(Timothy-Ryan O'Kane 饰)、塞西尔(Elly Han 饰)和米兰达(Astrea Campbell-Cobb 饰),四人结伴而行。在分开的这段时间里,发生的种种意外让艾瑞克和乔娜开始重新思考起了他们两人之间的关系。
  1. ##### MediaInfo ######
  2. General
  3. Unique ID                                : 206032323280456489852670932643186598144 (0x9B0061D0C3D36C7190637721C9C9E100)
  4. Complete name                            : Till.We.Meet.Again.2016.BluRay.1080p.x265.10bit-MiniHD.mkv
  5. Format                                   : Matroska
  6. Format version                           : Version 4
  7. File size                                : 2.89 GiB
  8. Duration                                 : 1 h 42 min
  9. Overall bit rate                         : 4 032 kb/s
  10. Encoded date                             : UTC 2017-09-11 05:44:58
  11. Writing application                      : mkvmerge v11.0.0 ('Alive') 64bit
  12. Writing library                          : libebml v1.3.4 + libmatroska v1.4.5
  13. Video
  14. ID                                       : 1
  15. Format                                   : HEVC
  16. Format/Info                              : High Efficiency Video Coding
  17. Codec ID                                 : V_MPEGH/ISO/HEVC
  18. Duration                                 : 1 h 42 min
  19. Bit rate                                 : 3 312 kb/s
  20. Width                                    : 1 920 pixels
  21. Height                                   : 804 pixels
  22. Display aspect ratio                     : 2.40:1
  23. Frame rate mode                          : Constant
  24. Frame rate                               : 23.976 (24000/1001/53354) FPS
  25. Bits/(Pixel*Frame)                       : 0.089
  26. Stream size                              : 2.37 GiB (82%)
  27. Default                                  : Yes
  28. Forced                                   : No
  29. Audio
  30. ID                                       : 2
  31. Format                                   : AC-3
  32. Format/Info                              : Audio Coding 3
  33. Commercial name                          : Dolby Digital
  34. Codec ID                                 : A_AC3
  35. Duration                                 : 1 h 42 min
  36. Bit rate mode                            : Constant
  37. Bit rate                                 : 640 kb/s
  38. Channel(s)                               : 6 channels
  39. Channel layout                           : L R C LFE Ls Rs
  40. Sampling rate                            : 48.0 kHz
  41. Frame rate                               : 31.250 FPS (1536 SPF)
  42. Compression mode                         : Lossy
  43. Stream size                              : 469 MiB (16%)
  44. Language                                 : English
  45. Service kind                             : Complete Main
  46. Default                                  : Yes
  47. Forced                                   : No
  48. Text #1
  49. ID                                       : 3
  50. Format                                   : PGS
  51. Muxing mode                              : zlib
  52. Codec ID                                 : S_HDMV/PGS
  53. Codec ID/Info                            : Picture based subtitle format used on BDs/HD-DVDs
  54. Language                                 : English
  55. Default                                  : Yes
  56. Forced                                   : No
  57. Text #2
  58. ID                                       : 4
  59. Format                                   : PGS
  60. Muxing mode                              : zlib
  61. Codec ID                                 : S_HDMV/PGS
  62. Codec ID/Info                            : Picture based subtitle format used on BDs/HD-DVDs
  63. Language                                 : Chinese
  64. Default                                  : No
  65. Forced                                   : No
  66. Menu
  67. 00:00:00.000                             : en:Chapter 01
  68. 00:09:45.667                             : en:Chapter 02
  69. 00:19:14.443                             : en:Chapter 03
  70. 00:29:08.121                             : en:Chapter 04
  71. 00:37:39.632                             : en:Chapter 05
  72. 00:46:52.351                             : en:Chapter 06
  73. 00:53:43.844                             : en:Chapter 07
  74. 01:02:02.050                             : en:Chapter 08
  75. 01:11:59.523                             : en:Chapter 09
  76. 01:17:31.479                             : en:Chapter 10
  77. 01:25:12.148                             : en:Chapter 11
  78. 01:36:05.134                             : en:Chapter 12





此处一般会放置磁力链或种子下载链接,不过此链接需要注册会员才能看到,点击“立即注册”
磁力链下载【下载链接仅对注册会员开放,登陆后可见】
BT9527电影天堂 1、BT9527电影天堂提供的BT文件均来源于互联网抓取,只供网友学习交流、技术提升使用。
2、我们遵守BitTorrent点对点协议原则,任何版权问题请联系原资源发布商,我们不处理任何版权纠纷,谢谢!如有争议请联系邮箱:BT9527#hotmail.com(#换成@)
3、如果您发现某页面或地址有错误,请联系站长邮箱BT9527#hotmail.com(#换成@),我们会尽快处理。您的热心是对BT9527电影天堂最大的支持。
4、本站建议去正规影院观看电影以支持电影行业发展。
最新回复 (0)

你可以在 登录 or 注册 后,对此帖发表评论!

返回
发新帖