里昂黑帮[简繁字幕].A.Gang.Story.2011.BluRay.1080p.DTS-HD.MA5.1.x265.10bit-ALT 10.38GB

版主小s 3月前 121

✔资源类型:暂未分类   ✔电影年份:2011   ✔电影地区:其他   ✔电影分类:剧情

◎标  题 里昂黑帮
◎译  名 劫命狂徒(台) / 黑帮故事 / 里昂帮匪故事 / A Gang Story
◎片  名 Les Lyonnais
◎年  代 2011
◎产  地 法国 / 比利时
◎类  别 剧情 / 犯罪
◎语  言 法语
◎上映日期 2011-11-30(法国)
◎IMDb评分 7/10 (8112人评价)
◎IMDb链接 https://www.imdb.com/title/tt1741542/
◎豆瓣评分 7.5/10 (6261人评价)
◎豆瓣链接 https://movie.douban.com/subject/6877524/
◎片  长 102分钟
◎导  演 奥利维埃·马夏尔 Olivier Marchal
◎编  剧 奥利维埃·马夏尔 Olivier Marchal
◎演  员 切基·卡尤 Tchéky Karyo
       热拉尔·朗万 Gérard Lanvin
       奥利维尔·雷堡汀 Olivier Rabourdin
       艾斯特尔·斯科妮 Estelle Skornik
       丹尼尔·杜瓦尔 Daniel Duval
       瓦莱里亚·卡瓦利 Valeria Cavalli
       斯特芬·凯亚尔 Stéphane Caillard
       奥利维埃·钱特里奥 Olivier Chantreau

◎标  签 黑帮 / 法国 / 犯罪 / 法国电影 / 人性 / 剧情 / 2011 / 动作

◎简  介
    成长在贫穷的吉普赛营地的埃德蒙·维达尔,又名摩门,保有着一份对家庭的责任感,无限忠诚与骄傲。尤其是,他和因偷窃而入狱的瑟奇·舒特尔依然保存着 友谊。两人无可避免的卷入到犯罪组织,六七十年代昂匪帮因持械抢劫而臭名卓著。不断壮大的匪帮在70年代中期得以遏制。今天,已年逾60的埃德蒙欲将这段 生活抹去,找个地方从生意中抽身,转向过去因此而受苦的妻子以及儿孙,而妻儿长孙对这个男人所拥有的坦率、普遍价值、清醒的头脑、以及无限仁慈深表尊敬。 但瑟奇·舒特尔的到来,这无法抹去的历史又会掀起怎样的涟漪……                                    
                                  幕后制作                                    
                                  奥利维埃·马夏尔被认为是法国六七十年、梅尔维尔时代黑帮片的继承者。他的《36警局》、《MR73左轮枪》虽然属于一般的商业警匪范畴,但情节有着 强烈的现实感和宿命感,显示出导演的功力。他的最新作品《里昂黑帮》日前在法国上映,影片有着成为一部法国版“教父”和“盗火线”的野心,但得到的评价较 为两级。有的观众认为影片的故事讲得很真诚,有的则计较其风格过于刻意和不够统一。奥利维埃·马夏尔本人在从影之前就是一名警察,他的前两部作品也都是讲 述警察的故事,但《里昂黑帮》将镜头对准了他们的对立面,“我并不希望美化黑帮,相反表现了他们之间所谓神圣的不可侵犯的男人情谊只不过是一种幻觉。我的 黑帮最终不是横死就是落狱,没有什么好下场。”
  1. ##### MediaInfo ######
  2. General
  3. Unique ID                                : 262650628141955042892096804995741962007 (0xC598ABC45DEBDC8762E5B87FA15ECF17)
  4. Complete name                            : A.Gang.Story.2011.BluRay.1080p.DTS-HD.MA5.1.x265.10bit-ALT.mkv
  5. Format                                   : Matroska
  6. Format version                           : Version 4
  7. File size                                : 10.4 GiB
  8. Duration                                 : 1 h 42 min
  9. Overall bit rate mode                    : Variable
  10. Overall bit rate                         : 14.5 Mb/s
  11. Encoded date                             : UTC 2022-06-08 07:16:28
  12. Writing application                      : mkvmerge v49.0.0 ('Sick Of Losing Soulmates') 64-bit
  13. Writing library                          : libebml v1.4.0 + libmatroska v1.6.1
  14. Video
  15. ID                                       : 1
  16. Format                                   : HEVC
  17. Format/Info                              : High Efficiency Video Coding
  18. Format profile                           : Main 10@L5.1@High
  19. Codec ID                                 : V_MPEGH/ISO/HEVC
  20. Duration                                 : 1 h 42 min
  21. Bit rate                                 : 12.2 Mb/s
  22. Width                                    : 1 920 pixels
  23. Height                                   : 816 pixels
  24. Display aspect ratio                     : 2.35:1
  25. Frame rate mode                          : Constant
  26. Frame rate                               : 24.000 FPS
  27. Color space                              : YUV
  28. Chroma subsampling                       : 4:2:0
  29. Bit depth                                : 10 bits
  30. Bits/(Pixel*Frame)                       : 0.326
  31. Stream size                              : 8.73 GiB (84%)
  32. Title                                    : HEVC, x265Main10@L5.1@High, 24 fps @ 12244 kbps
  33. Writing library                          : x265 3.5+36-1f2c8da77:[Windows][GCC 11.2.0][64 bit] 10bit
  34. Encoding settings                        : cpuid=533541049071 / frame-threads=3 / numa-pools=8 / wpp / no-pmode / no-pme / no-psnr / no-ssim / log-level=2 / input-csp=1 / input-res=1920x816 / interlace=0 / total-frames=147045 / level-idc=51 / high-tier=1 / uhd-bd=0 / ref=5 / no-allow-non-conformance / no-repeat-headers / annexb / no-aud / no-eob / no-eos / no-hrd / info / hash=0 / no-temporal-layers / open-gop / min-keyint=24 / keyint=240 / gop-lookahead=0 / bframes=6 / b-adapt=2 / b-pyramid / bframe-bias=0 / rc-lookahead=40 / lookahead-slices=0 / NTMzNTQ=uuDQuD2mJt9fsCf / scenecut=40 / no-hist-scenecut / radl=0 / no-splice / no-intra-refresh / ctu=32 / min-cu-size=8 / no-rect / no-amp / max-tu-size=32 / tu-inter-depth=3 / tu-intra-depth=3 / limit-tu=4 / rdoq-level=2 / dynamic-rd=0.00 / no-ssim-rd / signhide / no-tskip / nr-intra=0 / nr-inter=0 / no-constrained-intra / no-strong-intra-smoothing / max-merge=4 / limit-refs=1 / limit-modes / me=3 / subme=4 / merange=25 / temporal-mvp / no-frame-dup / no-hme / weightp / weightb / no-analyze-src-pics / deblock=-3:-3 / no-sao / no-sao-non-deblock / rd=6 / selective-sao=0 / no-early-skip / rskip / no-fast-intra / no-tskip-fast / no-cu-lossless / b-intra / no-splitrd-skip / rdpenalty=0 / psy-rd=2.00 / psy-rdoq=1.00 / no-rd-refine / no-lossless / cbqpoffs=-2 / crqpoffs=-2 / rc=crf / crf=17.0 / qcomp=0.65 / qpstep=4 / stats-write=0 / stats-read=0 / vbv-maxrate=80000 / vbv-bufsize=80000 / vbv-init=0.9 / min-vbv-fullness=50.0 / max-vbv-fullness=80.0 / crf-max=0.0 / crf-min=0.0 / ipratio=1.40 / pbratio=1.30 / aq-mode=2 / aq-strength=0.85 / cutree / zone-count=0 / no-strict-cbr / qg-size=32 / no-rc-grain / qpmax=69 / qpmin=0 / no-const-vbv / sar=1 / overscan=0 / videoformat=5 / range=0 / colorprim=1 / transfer=1 / colormatrix=1 / chromaloc=0 / display-window=0 / cll=0,0 / min-luma=0 / max-luma=1023 / log2-max-poc-lsb=8 / vui-timing-info / vui-hrd-info / slices=1 / no-opt-qp-pps / no-opt-ref-list-length-pps / no-multi-pass-opt-rps / scenecut-bias=0.05 / hist-threshold=0.03 / no-opt-cu-delta-qp / no-aq-motion / no-hdr10 / no-hdr10-opt / no-dhdr10-opt / no-idr-recovery-sei / analysis-reuse-level=0 / analysis-save-reuse-level=0 / analysis-load-reuse-level=0 / scale-factor=0 / refine-intra=0 / refine-inter=0 / refine-mv=1 / refine-ctu-distortion=0 / no-limit-sao / ctu-info=0 / no-lowpass-dct / refine-analysis-type=0 / copy-pic=1 / max-ausize-factor=1.0 / no-dynamic-refine / no-single-sei / no-hevc-aq / no-svt / no-field / qp-adaptation-range=1.00 / scenecut-aware-qp=0conformance-window-offsets / right=0 / bottom=0 / NTMzNTQ= / decoder-max-rate=0 / no-vbv-live-multi-pass
  35. Language                                 : English
  36. Default                                  : Yes
  37. Forced                                   : No
  38. Color range                              : Limited
  39. Color primaries                          : BT.709
  40. Transfer characteristics                 : BT.709
  41. Matrix coefficients                      : BT.709
  42. Audio
  43. ID                                       : 2
  44. Format                                   : DTS XLL
  45. Format/Info                              : Digital Theater Systems
  46. Commercial name                          : DTS-HD Master Audio
  47. Codec ID                                 : A_DTS
  48. Duration                                 : 1 h 42 min
  49. Bit rate mode                            : Variable
  50. Bit rate                                 : 2 267 kb/s
  51. Channel(s)                               : 6 channels
  52. Channel layout                           : C L R Ls Rs LFE
  53. Sampling rate                            : 48.0 kHz
  54. Frame rate                               : 93.750 FPS (512 SPF)
  55. Bit depth                                : 16 bits
  56. Compression mode                         : Lossless
  57. Stream size                              : 1.62 GiB (16%)
  58. Title                                    : French DTS-HD Master Audio 5.1 @ 2267 kbps
  59. Language                                 : French
  60. Default                                  : Yes
  61. Forced                                   : No
  62. Text #1
  63. ID                                       : 3
  64. Format                                   : PGS
  65. Codec ID                                 : S_HDMV/PGS
  66. Codec ID/Info                            : Picture based subtitle format used on BDs/HD-DVDs
  67. Duration                                 : 1 h 35 min
  68. Bit rate                                 : 15.6 kb/s
  69. Count of elements                        : 1781
  70. Stream size                              : 10.7 MiB (0%)
  71. Title                                    : Chs/SUP  简体
  72. Language                                 : Chinese
  73. Default                                  : Yes
  74. Forced                                   : No
  75. Text #2
  76. ID                                       : 4
  77. Format                                   : PGS
  78. Codec ID                                 : S_HDMV/PGS
  79. Codec ID/Info                            : Picture based subtitle format used on BDs/HD-DVDs
  80. Duration                                 : 1 h 35 min
  81. Bit rate                                 : 16.2 kb/s
  82. Count of elements                        : 1781
  83. Stream size                              : 11.1 MiB (0%)
  84. Title                                    : Cht/SUP  繁体
  85. Language                                 : Chinese
  86. Default                                  : No
  87. Forced                                   : No
  88. Menu
  89. 00:00:00.000                             : en:第 01 章
  90. 00:09:20.083                             : en:第 02 章
  91. 00:18:31.750                             : en:第 03 章
  92. 00:24:48.375                             : en:第 04 章
  93. 00:30:33.875                             : en:第 05 章
  94. 00:37:56.750                             : en:第 06 章
  95. 00:45:02.917                             : en:第 07 章
  96. 00:52:36.458                             : en:第 08 章
  97. 01:01:58.583                             : en:第 09 章
  98. 01:12:50.625                             : en:第 10 章
  99. 01:23:33.000                             : en:第 11 章
  100. 01:33:12.792                             : en:第 12 章





此处一般会放置磁力链或种子下载链接,不过此链接需要注册会员才能看到,点击“立即注册”
磁力链下载【下载链接仅对注册会员开放,登陆后可见】
BT9527电影天堂 1、BT9527电影天堂提供的BT文件均来源于互联网抓取,只供网友学习交流、技术提升使用。
2、我们遵守BitTorrent点对点协议原则,任何版权问题请联系原资源发布商,我们不处理任何版权纠纷,谢谢!如有争议请联系邮箱:BT9527#hotmail.com(#换成@)
3、如果您发现某页面或地址有错误,请联系站长邮箱BT9527#hotmail.com(#换成@),我们会尽快处理。您的热心是对BT9527电影天堂最大的支持。
4、本站建议去正规影院观看电影以支持电影行业发展。
最新回复 (0)

你可以在 登录 or 注册 后,对此帖发表评论!

返回
发新帖