咏晴[国语配音/中文字幕].Good.Day.2021.1080p.WEB-DL.AAC2.0.H.264-CTRLWEB 0.51GB

版主小s 15天前 128

✔资源类型:WEB-1080P   ✔电影年份:2021   ✔电影地区:台湾   ✔电影分类:剧情

◎译  名 咏晴 / Good Day
◎片  名 詠晴
◎年  代 2021
◎产  地 中国台湾
◎类  别 剧情 / 短片
◎语  言 汉语普通话
◎IMDb链接 https://www.imdb.com/title//
◎豆瓣链接 https://movie.douban.com/subject/35614689/
◎导  演 张志腾 Chih-Teng Chang (id:1378367)
◎演  员 周宜贤 Patrick Chou (id:1331666)
       杜笃之 Du-Che Tu (id:1275159)
       陈宗锦  (id:1471918)

◎获奖情况 (共4项)
  第24届台北电影节 (2022)
  台北电影奖 最佳短片(提名)
   └──张志腾 (id:1378367)
  台北电影奖 最佳摄影奖(提名)
   └──周宜贤 (id:1331666)
  台北电影奖 最佳技术奖(提名)
   └──陈宗锦 (id:1471918)
  台北电影奖 最佳声音设计(提名)
   └──杜笃之 (id:1275159)

  1. ##### MediaInfo ######
  2. General
  3. Unique ID                                : 181470775658981916782700684861108915352 (0x88860005B855B9F17C9AF7EF22DC0C98)
  4. Complete name                            : Good.Day.2021.1080p.WEB-DL.AAC2.0.H.264-CTRLWEB.mkv
  5. Format                                   : Matroska
  6. Format version                           : Version 4
  7. File size                                : 518 MiB
  8. Duration                                 : 19 min 2 s
  9. Overall bit rate                         : 3 806 kb/s
  10. Encoded date                             : UTC 2022-06-03 07:21:51
  11. Writing application                      : mkvmerge v65.0.0 ('Too Much') 64-bit
  12. Writing library                          : libebml v1.4.2 + libmatroska v1.6.4
  13. Video
  14. ID                                       : 1
  15. Format                                   : AVC
  16. Format/Info                              : Advanced Video Codec
  17. Format profile                           : High@L4.1
  18. Format settings                          : CABAC / 1 Ref Frames
  19. Format settings, CABAC                   : Yes
  20. Format settings, Reference frames        : 1 frame
  21. Format settings, GOP                     : M=1, N=60
  22. Codec ID                                 : V_MPEG4/ISO/AVC
  23. Duration                                 : 19 min 2 s
  24. Bit rate mode                            : Constant
  25. Bit rate                                 : 3 678 kb/s
  26. Nominal bit rate                         : 4 000 kb/s
  27. Width                                    : 1 920 pixels
  28. Height                                   : 1 080 pixels
  29. Display aspect ratio                     : 16:9
  30. Frame rate mode                          : Constant
  31. Frame rate                               : 29.970 (30000/1001/53354) FPS
  32. Color space                              : YUV
  33. Chroma subsampling                       : 4:2:0
  34. Bit depth                                : 8 bits
  35. Scan type                                : Progressive
  36. Bits/(Pixel*Frame)                       : 0.059
  37. Stream size                              : 501 MiB (97%)
  38. Language                                 : English
  39. Default                                  : Yes
  40. Forced                                   : No
  41. Audio
  42. ID                                       : 2
  43. Format                                   : AAC LC
  44. Format/Info                              : Advanced Audio Codec Low Complexity
  45. Codec ID                                 : A_AAC-2
  46. Duration                                 : 19 min 2 s
  47. Bit rate                                 : 125 kb/s
  48. Channel(s)                               : 2 channels
  49. Channel layout                           : L R
  50. Sampling rate                            : 48.0 kHz
  51. Frame rate                               : 46.875 FPS (1024 SPF)
  52. Compression mode                         : Lossy
  53. Stream size                              : 17.1 MiB (3%)
  54. Title                                    : Mandarin
  55. Language                                 : Chinese
  56. Default                                  : Yes
  57. Forced                                   : No
  58. Text #1
  59. ID                                       : 3
  60. Format                                   : UTF-8
  61. Codec ID                                 : S_TEXT/UTF8
  62. Codec ID/Info                            : UTF-8 Plain Text
  63. Duration                                 : 14 min 20 s
  64. Bit rate                                 : 23 b/s
  65. Count of elements                        : 125
  66. Stream size                              : 2.47 KiB (0%)
  67. Title                                    : Chinese Simplified
  68. Language                                 : Chinese
  69. Default                                  : Yes
  70. Forced                                   : No
  71. Text #2
  72. ID                                       : 4
  73. Format                                   : UTF-8
  74. Codec ID                                 : S_TEXT/UTF8
  75. Codec ID/Info                            : UTF-8 Plain Text
  76. Duration                                 : 14 min 20 s
  77. Bit rate                                 : 23 b/s
  78. Count of elements                        : 125
  79. Stream size                              : 2.47 KiB (0%)
  80. Title                                    : Chinese Traditional
  81. Language                                 : Chinese
  82. Default                                  : Yes
  83. Forced                                   : No





此处一般会放置磁力链或种子下载链接,不过此链接需要注册会员才能看到,点击“立即注册”
磁力链下载【下载链接仅对注册会员开放,登陆后可见】
BT9527电影天堂 1、BT9527电影天堂提供的BT文件均来源于互联网抓取,只供网友学习交流、技术提升使用。
2、我们遵守BitTorrent点对点协议原则,任何版权问题请联系原资源发布商,我们不处理任何版权纠纷,谢谢!如有争议请联系邮箱:BT9527#hotmail.com(#换成@)
3、如果您发现某页面或地址有错误,请联系站长邮箱BT9527#hotmail.com(#换成@),我们会尽快处理。您的热心是对BT9527电影天堂最大的支持。
4、本站建议去正规影院观看电影以支持电影行业发展。
最新回复 (1)

你可以在 登录 or 注册 后,对此帖发表评论!

返回
发新帖