艋舺[国语音轨/中英字幕].Monga.2010.BluRay.1080p.x265.10bit-MiniHD 7.46GB

版主小s 3月前 185

✔资源类型:暂未分类   ✔电影年份:2010   ✔电影地区:台湾   ✔电影分类:剧情

◎译  名 艋舺 / Báng-kah / Meng Xia / Monga
◎年  代 2010
◎产  地 中国台湾
◎类  别 剧情 / 动作 / 犯罪
◎语  言 闽南语 / 汉语普通话
◎上映日期 2010-02-05
◎IMDb链接 https://www.imdb.com/title/tt1604900/
◎豆瓣评分 7.7/10 (262409人评价)
◎豆瓣链接 https://movie.douban.com/subject/3737102/
◎片  长 140 分钟
◎导  演 钮承泽 Doze Niu Chen-Zer (id:1274411)
◎编  剧 钮承泽 Doze Niu Chen-Zer (id:1274411)
       曾莉婷 Li-ting Tseng (id:1407460)
◎演  员 赵又廷 Mark Chao (id:1274608)
       阮经天 Ethan Juan (id:1259866)
       凤小岳 Rhydian Vaughan (id:1274684)
       黄镫辉 Huang Teng-Hui (id:1275481)
       陈汉典 Han Dian Chen (id:1274546)
       柯佳嬿 Alice Ko (id:1274458)
       马如龙 Ju-Lung Ma (id:1274685)
       蔡昌宪 Chang-Hsien Tsai (id:1315231)
       钮承泽 Doze Niu Chen-Zer (id:1274411)
       席曼宁 Man-Ning Si (id:1314706)
       陈竹昇 Chu-sheng Chen (id:1358964)
       陆弈静 Yi-Ching Lu (id:1290389)
       林秀玲 Hsiu-Ling Lin (id:1317933)
       王识贤 Jason Wang (id:1314537)
       喻虹渊 Reen Yu (id:1318602)
       唐国忠 Kuo-chung Tang (id:1338423)
       邢峰 Feng Hsing (id:1359741)
       钮承泽 Doze Niu Chen-Zer (id:1274411)
       李烈 Lieh Li (id:1316681)
       曾莉婷 Li-ting Tseng (id:1407460)
       黄志明 Chih-ming Huang (id:1325051)
       蔡信弘 Xing-Hung Cai (id:1315949)
       陈珊妮 Sandee Chan (id:1313578)
       包轩鸣 Jake Pollock (id:1319117)
       王伟六 Wei-liu Wang (id:1393115)
       钮承泽 Doze Niu Chen-Zer (id:1274411)
       曾莉婷 Li-ting Tseng (id:1407460)
       林雍益 Ian Lin (id:1370244)
       黄美清 Max Huang (id:1331964)
       吴若昀 Jo-Yun Wu (id:1347718)
       陈柏任 Po-Jen Chen (id:1331965)
       方绮伦 Chi-Lun Fang (id:1378381)
       林书宇 Tom Lin (id:1314067)
       郝芳葳 Fang-Wei Hao (id:1433468)
       杜笃之 Du-Che Tu (id:1275159)
       胡仲光 Tony Hu (id:1377115)
       林哲民 Johnny Lin (id:1331671)
       梁吉泳 Kil-Yong Yang (id:1325149)
       张再兴 Tsai-Hsing Chang (id:1358342)
       李龙禹 Lung-Yue Lee (id:1331199)

◎简  介
  蚊子(赵又廷 饰)17岁那年搬到艋舺,因为一根鸡腿踏入了黑道,认识了和尚(阮经天 饰)、志龙、阿伯还有白猴四个好兄弟,五人结为太子帮。太子帮秉持只识意气,不问意义的精神,凭借志龙的父亲Geta(马如龙 饰)的黑道地位在学校呼风唤雨。踏入黑道就意味着要经历腥风血雨,然而和尚作为众人的守护神总能帮他们化解危机。艋舺传统的黑道秩序遭受着现代文明的威胁,外省人灰狼(钮承泽 饰)要求和艋舺的老大们合作遭到拒绝。此时,和尚由于得知父辈们之间的事情对Geta心怀不满,加之文谦的怂恿而卷入一场阴谋。艋舺局势暗潮汹涌、杀机四伏,五兄弟在黑道与友情的决择中,演绎了一段关于青春的悲情故事。                                    
                                导演钮承泽称《艋舺》是“生猛又华丽的青春动作片”。本片于2010年春节档在台湾上映,首周票房达6000万新台币,刷新了台湾本土电影的首周票房纪录。

◎获奖情况 (共17项)
  第47届台北金马影展 (2010)
  金马奖 最佳男主角
   └──阮经天 (id:1259866)
  金马奖 最佳美术设计(提名)
  金马奖 最佳原创配乐(提名)
   └──陈珊妮 (id:1313578)
  金马奖 最佳音效
   └──杜笃之 (id:1275159)

  第30届香港电影金像奖 (2011)
  最佳亚洲电影(提名)

  第5届亚洲电影大奖 (2011)
  我最喜爱的男女主角 我最喜爱的男主角(提名)
   └──阮经天 (id:1259866)
  最佳男主角(提名)
   └──阮经天 (id:1259866)
  最佳新演员
   └──赵又廷 (id:1274608)
  最佳摄影(提名)
   └──包轩鸣 (id:1319117)
  最佳原创音乐(提名)
   └──陈珊妮 (id:1313578)
  最佳美术指导(提名)

  第11届华语电影传媒大奖 (2011)
  百家传媒年度致敬电影(提名)
  最佳电影(提名)
  最佳导演(提名)
   └──钮承泽 (id:1274411)
  最佳男配角
   └──马如龙 (id:1274685)
  最佳新导演
   └──钮承泽 (id:1274411)
  最佳新演员(提名)
   └──赵又廷 (id:1274608)

  1. ##### MediaInfo ######
  2. General
  3. Unique ID                                : 191008606188965128633164159790632269798 (0x8FB2EB5FBB503546BBAC39DBB24DF7E6)
  4. Complete name                            : Monga.2010.BluRay.1080p.x265.10bit-MiniHD.mkv
  5. Format                                   : Matroska
  6. Format version                           : Version 4
  7. File size                                : 7.45 GiB
  8. Duration                                 : 2 h 20 min
  9. Overall bit rate                         : 7 574 kb/s
  10. Encoded date                             : UTC 2017-09-14 01:41:29
  11. Writing application                      : mkvmerge v11.0.0 ('Alive') 64bit
  12. Writing library                          : libebml v1.3.4 + libmatroska v1.4.5
  13. Video
  14. ID                                       : 1
  15. Format                                   : HEVC
  16. Format/Info                              : High Efficiency Video Coding
  17. Codec ID                                 : V_MPEGH/ISO/HEVC
  18. Duration                                 : 2 h 20 min
  19. Bit rate                                 : 6 925 kb/s
  20. Width                                    : 1 920 pixels
  21. Height                                   : 816 pixels
  22. Display aspect ratio                     : 2.35:1
  23. Frame rate mode                          : Constant
  24. Frame rate                               : 24.000 FPS
  25. Bits/(Pixel*Frame)                       : 0.184
  26. Stream size                              : 6.82 GiB (91%)
  27. Default                                  : Yes
  28. Forced                                   : No
  29. Audio
  30. ID                                       : 2
  31. Format                                   : AC-3
  32. Format/Info                              : Audio Coding 3
  33. Commercial name                          : Dolby Digital
  34. Codec ID                                 : A_AC3
  35. Duration                                 : 2 h 20 min
  36. Bit rate mode                            : Constant
  37. Bit rate                                 : 640 kb/s
  38. Channel(s)                               : 6 channels
  39. Channel layout                           : L R C LFE Ls Rs
  40. Sampling rate                            : 48.0 kHz
  41. Frame rate                               : 31.250 FPS (1536 SPF)
  42. Compression mode                         : Lossy
  43. Stream size                              : 644 MiB (8%)
  44. Language                                 : Chinese
  45. Service kind                             : Complete Main
  46. Default                                  : Yes
  47. Forced                                   : No
  48. Text #1
  49. ID                                       : 3
  50. Format                                   : PGS
  51. Muxing mode                              : zlib
  52. Codec ID                                 : S_HDMV/PGS
  53. Codec ID/Info                            : Picture based subtitle format used on BDs/HD-DVDs
  54. Duration                                 : 2 h 15 min
  55. Bit rate                                 : 3 387 b/s
  56. Count of elements                        : 2744
  57. Stream size                              : 3.29 MiB (0%)
  58. Language                                 : Chinese
  59. Default                                  : Yes
  60. Forced                                   : No
  61. Text #2
  62. ID                                       : 4
  63. Format                                   : PGS
  64. Muxing mode                              : zlib
  65. Codec ID                                 : S_HDMV/PGS
  66. Codec ID/Info                            : Picture based subtitle format used on BDs/HD-DVDs
  67. Duration                                 : 2 h 16 min
  68. Bit rate                                 : 3 792 b/s
  69. Count of elements                        : 2728
  70. Stream size                              : 3.70 MiB (0%)
  71. Language                                 : English
  72. Default                                  : No
  73. Forced                                   : No
  74. Menu
  75. 00:00:00.000                             : en:Chapter 01
  76. 00:09:32.958                             : en:Chapter 02
  77. 00:21:19.083                             : en:Chapter 03
  78. 00:27:13.625                             : en:Chapter 04
  79. 00:35:20.708                             : en:Chapter 05
  80. 00:45:55.416                             : en:Chapter 06
  81. 00:53:15.583                             : en:Chapter 07
  82. 01:03:11.583                             : en:Chapter 08
  83. 01:13:04.000                             : en:Chapter 09
  84. 01:21:20.916                             : en:Chapter 10
  85. 01:30:27.208                             : en:Chapter 11
  86. 01:39:49.250                             : en:Chapter 12
  87. 01:43:57.208                             : en:Chapter 13
  88. 01:58:53.458                             : en:Chapter 14
  89. 02:16:12.791                             : en:Chapter 15





此处一般会放置磁力链或种子下载链接,不过此链接需要注册会员才能看到,点击“立即注册”
磁力链下载【下载链接仅对注册会员开放,登陆后可见】
BT9527电影天堂 1、BT9527电影天堂提供的BT文件均来源于互联网抓取,只供网友学习交流、技术提升使用。
2、我们遵守BitTorrent点对点协议原则,任何版权问题请联系原资源发布商,我们不处理任何版权纠纷,谢谢!如有争议请联系邮箱:BT9527#hotmail.com(#换成@)
3、如果您发现某页面或地址有错误,请联系站长邮箱BT9527#hotmail.com(#换成@),我们会尽快处理。您的热心是对BT9527电影天堂最大的支持。
4、本站建议去正规影院观看电影以支持电影行业发展。
最新回复 (1)

你可以在 登录 or 注册 后,对此帖发表评论!

返回
发新帖