灵语[国语配音/中文字幕].Kidnapped.Soul.2021.1080p.Netflix.WEB-DL.H264.DDP5.1-HDBWEB 2.02GB

版主小s 3月前 161

✔资源类型:WEB-1080P   ✔电影年份:2021   ✔电影地区:台湾   ✔电影分类:惊悚

◎译  名 灵语 / Kidnapped Soul
◎片  名 靈語
◎年  代 2021
◎产  地 中国台湾
◎类  别 惊悚 / 犯罪
◎语  言 汉语普通话
◎上映日期 2021-10-22(中国台湾)
◎IMDb链接 https://www.imdb.com/title//
◎豆瓣评分 3.7/10 (685人评价)
◎豆瓣链接 https://movie.douban.com/subject/34852396/
◎导  演 苏皇铭 Huang-Ming Su (id:1428861)
◎演  员 是元介 Jay Shin (id:1275953)
       郑人硕 Rexen Cheng (id:1341951)
       杨丞琳 Rainie Yang (id:1018547)
       禾浩辰 Bruce Hung (id:1341902)
       石知田 Chih Tian Shih (id:1350154)
       丁宁 Ning Ding (id:1319882)
       李国超 Kuo-Chao Li (id:1417999)
       吴可熙 Ke-Hsi Wu (id:1341122)

◎简  介
  ★《麻醉风暴》副导演首部长片,颠覆想像打造台湾灵异惊悚电影新篇章!                                       
                                    ★ 金马影后提名吴可熙、金钟视后及金奖影后提名杨丞琳、金马最佳女配角丁宁三后同台飙戏!                                       
                                    ★《同学麦娜丝》《角头–浪流连》金马奖最佳男配角提名郑人硕深情演出!                                       
                                    ★《老师,你会不会回来?》暖男是元介化身火爆重案组刑警!                                       
                                    ★ 文化部年度优良电影剧本佳作惊悚推理改编!                                       
                                    ? 剧情简介 ?                                       
                                    解不了的谜,破不了的案,就靠…灵语                                       
                                    刑警志凯(是元介饰)奉命调查一起无名儿童连环箱尸命案,同时,他在国小任教的姊姊美珍(吴可熙饰)在放学时发现女儿惨遭歹徒绑架,志凯与搭档嘉强(禾浩辰饰)私下展开紧急救人行动。在查案过程中循线追踪到美珍的前邻居明城(郑人硕饰)与慧岚(杨丞琳饰),意外发现他们的女儿也已经失踪一年,案情胶著找不到任何线索,几乎成了破不了的悬案,两起看似毫无关联的案件背后似乎隐藏惊人的连结。时间一分...
  1. ##### MediaInfo ######
  2. General
  3. Unique ID                                : 284320542021061649853064832244892778457 (0xD5E625026D369EE55C77F5A557A73FD9)
  4. Complete name                            : 灵语.Kidnapped.Soul.2021.1080p.Netflix.WEB-DL.H264.DDP5.1-HDBWEB.mkv
  5. Format                                   : Matroska
  6. Format version                           : Version 4
  7. File size                                : 2.02 GiB
  8. Duration                                 : 1 h 29 min
  9. Overall bit rate mode                    : Variable
  10. Overall bit rate                         : 3 230 kb/s
  11. Movie name                               : 靈語
  12. Description                              : 急著找舅鞯母改负途角笾`媒,調查一連串的兒童命案。
  13. Encoded date                             : UTC 2022-06-12 06:22:52
  14. Writing application                      : mkvmerge v64.0.0 ('Willows') 64-bit
  15. Writing library                          : libebml v1.4.2 + libmatroska v1.6.4 / Lavf58.76.100
  16. DATE                                     : 2021
  17. Video
  18. ID                                       : 1
  19. Format                                   : AVC
  20. Format/Info                              : Advanced Video Codec
  21. Format profile                           : High@L4
  22. Format settings                          : CABAC / 4 Ref Frames
  23. Format settings, CABAC                   : Yes
  24. Format settings, Reference frames        : 4 frames
  25. Codec ID                                 : V_MPEG4/ISO/AVC
  26. Duration                                 : 1 h 29 min
  27. Bit rate mode                            : Variable
  28. Bit rate                                 : 2 460 kb/s
  29. Maximum bit rate                         : 20.0 Mb/s
  30. Width                                    : 1 920 pixels
  31. Height                                   : 1 080 pixels
  32. Display aspect ratio                     : 16:9
  33. Frame rate mode                          : Constant
  34. Frame rate                               : 24.000 FPS
  35. Color space                              : YUV
  36. Chroma subsampling                       : 4:2:0
  37. Bit depth                                : 8 bits
  38. Scan type                                : Progressive
  39. Bits/(Pixel*Frame)                       : 0.049
  40. Stream size                              : 1.54 GiB (76%)
  41. Title                                    : 264:fmt=264:moovts=-1:fps=24:deps:par=auto@GPAC2.1-DEV-rev6151-gb558f0b55-HEAD
  42. Writing library                          : x264 core 148 r2727 7d026e8
  43. Encoding settings                        : cabac=1 / ref=4 / deblock=1:0:0 / analyse=0x3:0x111 / me=umh / subme=10 / psy=1 / psy_rd=1.00:0.00 / mixed_ref=1 / me_range=120 / chroma_me=1 / trellis=2 / 8x8dct=1 / cqm=0 / deadzone=21,11 / fast_pskip=1 / chroma_qp_offset=-2 / threads=8 / lookahead_threads=2 / sliced_threads=0 / nr=0 / decimate=1 / interlaced=0 / NTMzNTQ= / bluray_compat=0 / stitchable=1 / constrained_intra=0 / bframes=16 / b_pyramid=2 / b_adapt=2 / b_bias=0 / direct=3 / weightb=1 / open_gop=0 / weightp=2 / keyint=240 / keyint_min=121 / scenecut=0 / intra_refresh=0 / rc_lookahead=240 / rc=crf / mbtree=1 / crf=16.0 / qcomp=0.50 / qpmin=6 / qpmax=51 / qpstep=4 / vbv_maxrate=20000 / vbv_bufsize=25000 / crf_max=0.0 / nal_hrd=vbr / filler=0 / NTMzNTQ=LmsMAP37EqsCpk / ip_ratio=1.40 / aq=1:0.80
  44. Default                                  : Yes
  45. Forced                                   : No
  46. VENDOR_ID                                : [0][0][0][0]
  47. Audio #1
  48. ID                                       : 2
  49. Format                                   : E-AC-3
  50. Format/Info                              : Enhanced AC-3
  51. Commercial name                          : Dolby Digital Plus
  52. Codec ID                                 : A_EAC3
  53. Duration                                 : 1 h 29 min
  54. Bit rate mode                            : Constant
  55. Bit rate                                 : 640 kb/s
  56. Channel(s)                               : 6 channels
  57. Channel layout                           : L R C LFE Ls Rs
  58. Sampling rate                            : 48.0 kHz
  59. Frame rate                               : 31.250 FPS (1536 SPF)
  60. Bit depth                                : 32 bits
  61. Compression mode                         : Lossy
  62. Stream size                              : 409 MiB (20%)
  63. Title                                    : 國語 [原始]
  64. Service kind                             : Complete Main
  65. Default                                  : Yes
  66. Forced                                   : No
  67. VENDOR_ID                                : [0][0][0][0]
  68. Audio #2
  69. ID                                       : 3
  70. Format                                   : E-AC-3
  71. Format/Info                              : Enhanced AC-3
  72. Commercial name                          : Dolby Digital Plus
  73. Codec ID                                 : A_EAC3
  74. Duration                                 : 1 h 29 min
  75. Bit rate mode                            : Constant
  76. Bit rate                                 : 128 kb/s
  77. Channel(s)                               : 2 channels
  78. Channel layout                           : L R
  79. Sampling rate                            : 48.0 kHz
  80. Frame rate                               : 31.250 FPS (1536 SPF)
  81. Bit depth                                : 32 bits
  82. Compression mode                         : Lossy
  83. Stream size                              : 81.9 MiB (4%)
  84. Title                                    : 國語 [原始]
  85. Service kind                             : Complete Main
  86. Default                                  : No
  87. Forced                                   : No
  88. VENDOR_ID                                : [0][0][0][0]
  89. Text #1
  90. ID                                       : 4
  91. Format                                   : UTF-8
  92. Codec ID                                 : S_TEXT/UTF8
  93. Codec ID/Info                            : UTF-8 Plain Text
  94. Duration                                 : 1 h 25 min
  95. Bit rate                                 : 39 b/s
  96. Count of elements                        : 934
  97. Stream size                              : 24.4 KiB (0%)
  98. Title                                    : English
  99. Language                                 : English
  100. Default                                  : Yes
  101. Forced                                   : Yes
  102. Text #2
  103. ID                                       : 5
  104. Format                                   : UTF-8
  105. Codec ID                                 : S_TEXT/UTF8
  106. Codec ID/Info                            : UTF-8 Plain Text
  107. Duration                                 : 1 h 25 min
  108. Bit rate                                 : 34 b/s
  109. Count of elements                        : 934
  110. Stream size                              : 21.8 KiB (0%)
  111. Title                                    : Traditional
  112. Language                                 : Chinese
  113. Default                                  : Yes
  114. Forced                                   : Yes
  115. Text #3
  116. ID                                       : 6
  117. Format                                   : UTF-8
  118. Codec ID                                 : S_TEXT/UTF8
  119. Codec ID/Info                            : UTF-8 Plain Text
  120. Duration                                 : 1 h 25 min
  121. Bit rate                                 : 34 b/s
  122. Count of elements                        : 934
  123. Stream size                              : 21.7 KiB (0%)
  124. Title                                    : Simplified
  125. Language                                 : Chinese
  126. Default                                  : Yes
  127. Forced                                   : Yes





此处一般会放置磁力链或种子下载链接,不过此链接需要注册会员才能看到,点击“立即注册”
磁力链下载【下载链接仅对注册会员开放,登陆后可见】
BT9527电影天堂 1、BT9527电影天堂提供的BT文件均来源于互联网抓取,只供网友学习交流、技术提升使用。
2、我们遵守BitTorrent点对点协议原则,任何版权问题请联系原资源发布商,我们不处理任何版权纠纷,谢谢!如有争议请联系邮箱:BT9527#hotmail.com(#换成@)
3、如果您发现某页面或地址有错误,请联系站长邮箱BT9527#hotmail.com(#换成@),我们会尽快处理。您的热心是对BT9527电影天堂最大的支持。
4、本站建议去正规影院观看电影以支持电影行业发展。
最新回复 (1)

你可以在 登录 or 注册 后,对此帖发表评论!

返回