过春天[粤语配音/国语配音/中文字幕].The.Crossing.2018.NF.WEB-DL.1080p.H.264.DDP.5.1-HomeWEB 2.29GB

版主小s 21天前 72

✔资源类型:WEB-1080P   ✔电影年份:2018   ✔电影地区:大陆   ✔电影分类:剧情

◎标  题 过春天
◎译  名 分隔线 / 佩佩 / The Crossing
◎年  代 2018
◎产  地 中国大陆
◎类  别 剧情
◎语  言 汉语普通话 / 粤语
◎上映日期 2019-03-15(中国大陆) / 2018-09-08(多伦多电影节)
◎IMDb评分 6.8/10 (1060人评价)
◎IMDb链接 https://www.imdb.com/title/tt8875366/
◎豆瓣评分 7.7/10 (299910人评价)
◎豆瓣链接 https://movie.douban.com/subject/27191431/
◎片  长 99分钟
◎导  演 白雪 Xue Bai
◎编  剧 白雪 Xue Bai
       林美如 Meiru Lin
       孙妍 Yan Sun
       赵丹娜 Danna Zhao
◎演  员 黄尧 Yao Huang
       孙阳 Yang Sun
       汤加文 Carmen Tong
       倪虹洁 Hongjie Ni
       江美仪 Elena Kong
       廖启智 Kai Chi Liu
       焦刚 Gang Jiao
       李智彬 Henry Lei
       陈健朗 Kinlong Chan
       田壮壮 Zhuangzhuang Tian
       孙陶 Sun Tao
       曾茂军 Maojun Zeng
       郑剑锋 Kim Fung Cheng
       贺斌 Bin He
       高小阳 Xiaoyang Gao
       朴松日 Songri Piao
       马修·拉克劳 Matthieu Laclau
       张兆康 Ahong Cheung
       张兆康 Ahong Cheung
       戴言冰
       尚进 Jin Shang
       冯彦铭 Yanming Feng

◎简  介
  单亲家庭出身的16岁女学生佩佩(黄尧 饰),她的城市既是香港、也是深圳,白天在香港上学,晚上回到深圳跟妈妈(倪虹洁 饰)住在一起,频繁地穿梭于两地。为了和闺蜜Joe(汤加文 饰)一起旅行的约定,为了自己的存在感,为了对Joe男友阿豪(孙阳 饰)懵懂的好感,她内心的冲动被点燃,“水客”成为了她的另一个身份,一段颇有“冒险”感的青春故事就此开始。
  1. ##### MediaInfo ######
  2. General
  3. Unique ID                                : 233808229625108989525847012446783790586 (0xAFE5D3BAB9149B2A8DB7ADCE1715DDFA)
  4. Complete name                            : The.Crossing.2018.NF.WEB-DL.1080p.H.264.DDP.5.1-HomeWEB.mkv
  5. Format                                   : Matroska
  6. Format version                           : Version 4
  7. File size                                : 2.28 GiB
  8. Duration                                 : 1 h 39 min
  9. Overall bit rate mode                    : Variable
  10. Overall bit rate                         : 3 272 kb/s
  11. Movie name                               : 过春天
  12. Description                              : 16岁女孩为了与富家女好友一起去日本玩,加入了走私手机集团,但是整个计划却一发不可收拾。
  13. Encoded date                             : UTC 2021-12-21 19:01:25
  14. Writing application                      : mkvmerge v68.0.0 ('The Curtain') 64-bit
  15. Writing library                          : libebml v1.4.2 + libmatroska v1.6.4 / Lavf58.31.104
  16. Cover                                    : Yes
  17. Attachments                              : cover.png
  18. Video
  19. ID                                       : 1
  20. Format                                   : AVC
  21. Format/Info                              : Advanced Video Codec
  22. Format profile                           : Main@L4
  23. Format settings                          : CABAC / 3 Ref Frames
  24. Format settings, CABAC                   : Yes
  25. Format settings, Reference frames        : 3 frames
  26. Codec ID                                 : V_MPEG4/ISO/AVC
  27. Duration                                 : 1 h 39 min
  28. Bit rate mode                            : Variable
  29. Bit rate                                 : 2 515 kb/s
  30. Maximum bit rate                         : 4 740 kb/s
  31. Width                                    : 1 920 pixels
  32. Height                                   : 1 080 pixels
  33. Display aspect ratio                     : 16:9
  34. Frame rate mode                          : Constant
  35. Frame rate                               : 24.000 FPS
  36. Color space                              : YUV
  37. Chroma subsampling                       : 4:2:0
  38. Bit depth                                : 8 bits
  39. Scan type                                : Progressive
  40. Bits/(Pixel*Frame)                       : 0.051
  41. Stream size                              : 1.83 GiB (80%)
  42. Writing library                          : x264 core 148 r2727 7d026e8
  43. Encoding settings                        : cabac=1 / ref=3 / deblock=1:0:0 / analyse=0x1:0x111 / me=umh / subme=10 / psy=1 / psy_rd=1.00:0.00 / mixed_ref=1 / me_range=24 / chroma_me=1 / trellis=2 / 8x8dct=0 / cqm=0 / deadzone=21,11 / fast_pskip=1 / chroma_qp_offset=-2 / threads=6 / lookahead_threads=1 / sliced_threads=0 / nr=0 / decimate=1 / interlaced=0 / NTMzNTQ= / bluray_compat=0 / stitchable=1 / constrained_intra=0 / bframes=2 / b_pyramid=0 / b_adapt=2 / b_bias=0 / direct=3 / weightb=1 / open_gop=0 / weightp=2 / keyint=250 / keyint_min=24 / scenecut=0 / intra_refresh=0 / rc_lookahead=48 / rc=2pass / mbtree=1 / bitrate=2515 / ratetol=1.0 / qcomp=0.50 / qpmin=6 / qpmax=51 / qpstep=4 / cplxblur=20.0 / qblur=0.5 / vbv_maxrate=4740 / vbv_bufsize=6320 / nal_hrd=vbr / filler=0 / NTMzNTQ=LmsMAP37EqsCpk / ip_ratio=1.40 / aq=1:1.00
  44. Default                                  : Yes
  45. Forced                                   : No
  46. Audio
  47. ID                                       : 2
  48. Format                                   : E-AC-3
  49. Format/Info                              : Enhanced AC-3
  50. Commercial name                          : Dolby Digital Plus
  51. Codec ID                                 : A_EAC3
  52. Duration                                 : 1 h 39 min
  53. Bit rate mode                            : Constant
  54. Bit rate                                 : 640 kb/s
  55. Channel(s)                               : 6 channels
  56. Channel layout                           : L R C LFE Ls Rs
  57. Sampling rate                            : 48.0 kHz
  58. Frame rate                               : 31.250 FPS (1536 SPF)
  59. Bit depth                                : 32 bits
  60. Compression mode                         : Lossy
  61. Stream size                              : 458 MiB (20%)
  62. Title                                    : 粤语
  63. Language                                 : Chinese
  64. Service kind                             : Complete Main
  65. Default                                  : Yes
  66. Forced                                   : No
  67. Text #1
  68. ID                                       : 3
  69. Format                                   : UTF-8
  70. Codec ID                                 : S_TEXT/UTF8
  71. Codec ID/Info                            : UTF-8 Plain Text
  72. Duration                                 : 1 h 30 min
  73. Bit rate                                 : 33 b/s
  74. Count of elements                        : 976
  75. Stream size                              : 21.9 KiB (0%)
  76. Title                                    : 简体中文
  77. Language                                 : Chinese
  78. Default                                  : Yes
  79. Forced                                   : No
  80. Text #2
  81. ID                                       : 4
  82. Format                                   : UTF-8
  83. Codec ID                                 : S_TEXT/UTF8
  84. Codec ID/Info                            : UTF-8 Plain Text
  85. Duration                                 : 1 h 30 min
  86. Bit rate                                 : 33 b/s
  87. Count of elements                        : 976
  88. Stream size                              : 21.9 KiB (0%)
  89. Title                                    : 繁体中文
  90. Language                                 : Chinese
  91. Default                                  : No
  92. Forced                                   : No
  93. Text #3
  94. ID                                       : 5
  95. Format                                   : UTF-8
  96. Codec ID                                 : S_TEXT/UTF8
  97. Codec ID/Info                            : UTF-8 Plain Text
  98. Duration                                 : 1 h 30 min
  99. Bit rate                                 : 38 b/s
  100. Count of elements                        : 835
  101. Stream size                              : 25.3 KiB (0%)
  102. Title                                    : 英语
  103. Language                                 : English
  104. Default                                  : No
  105. Forced                                   : No



此处一般会放置磁力链或种子下载链接,不过此链接需要注册会员才能看到,点击“立即注册”
磁力链下载【下载链接仅对注册会员开放,登陆后可见】
BT9527电影天堂 1、BT9527电影天堂提供的BT文件均来源于互联网抓取,只供网友学习交流、技术提升使用。
2、我们遵守BitTorrent点对点协议原则,任何版权问题请联系原资源发布商,我们不处理任何版权纠纷,谢谢!如有争议请联系邮箱:BT9527#hotmail.com(#换成@)
3、如果您发现某页面或地址有错误,请联系站长邮箱BT9527#hotmail.com(#换成@),我们会尽快处理。您的热心是对BT9527电影天堂最大的支持。
4、本站建议去正规影院观看电影以支持电影行业发展。
最新回复 (1)

你可以在 登录 or 注册 后,对此帖发表评论!

返回
发新帖