爱情神话[杜比视界版本][国语配音/中文字幕].B.for.Busy.2021.2160p.WEB-DL.H265.DV.DDP5.1.Atmos-HDBWEB 10.88GB

版主小s 3月前 247

✔资源类型:4K   ✔电影年份:2021   ✔电影地区:大陆   ✔电影分类:剧情

◎译  名 爱情神话 / B for Busy / Myth of Love
◎年  代 2021
◎产  地 中国大陆
◎类  别 剧情 / 喜剧 / 爱情
◎语  言 汉语普通话 / 沪语
◎上映日期 2021-12-24(中国大陆)
◎IMDb链接 https://www.imdb.com/title/tt16606348/
◎豆瓣评分 8.1/10 (600697人评价)
◎豆瓣链接 https://movie.douban.com/subject/35376457/
◎片  长 112分钟
◎导  演 邵艺辉 Yihui Shao (id:1349910)
◎编  剧 邵艺辉 Yihui Shao (id:1349910)
◎演  员 徐峥 Zheng Xu (id:1274297)
       马伊琍 Yili Ma (id:1011935)
       吴越 Yue Wu (id:1310696)
       倪虹洁 Hongjie Ni (id:1274649)
       周野芒 Yemang Zhou (id:1275865)
       黄明昊 Justin (id:1390368)
       王影璐 Yinglu Wang (id:1447805)
       宁理 Li Ning (id:1327193)
       张芝华 Zhihua Zhang (id:1315113)
       吴冕 Mian Wu (id:1313721)
       冯玛娅 Maya Feng (id:1462701)
       哈姆扎·穆罕默德·纳吉·萨拉米 Hamzah Mohamed Nagi Al-salami (id:1462702)
       孙思瀚 Sihan Sun (id:1318252)
       赵胤胤 Yinyin Zhao (id:1437309)
       卫莱 Lai Wei (id:1326121)
       史航 Hang Shi (id:1275948)
       徐峥 Zheng Xu (id:1274297)
       陈砺志 Lizhi Chen (id:1400325)
       刘瑞芳 Ruifang Liu (id:1396881)
       王健儿 Jian'er Wang (id:1440168)
       高松  (id:1465147)
       叶婷  (id:1450980)
       吴婷婷  (id:1465149)
       周展 Zhan Zhou (id:1445688)
       岳洋 Yang Yue (id:1442014)
       梁静 Jing Liang (id:1274641)
       林丽君  (id:1462072)
       徐欣  (id:1462073)
       覃燕妮  (id:1462074)
       高绰仪 Chuoyi Gao (id:1468432)
       文子 Wen Zi (id:1330094)
       谢征宇 Zhengyu Xie (id:1397414)
       孙志功 Zhigong Sun (id:1409415)
       黄琼逸 Yiqiong Huang (id:1454104)
       傅英彰 Yingzhang Fu (id:1345099)
       魏湘容 Hsiang-Jung Wei (id:1331669)
       温波 Bo Wen (id:1330581)

◎简  介
  离异多年的画家老白(徐峥 饰)经朋友介绍认识了同样离异,带着一个孩子的李小姐(马伊琍 饰),老白对李小姐一见倾心,可是李小姐似乎对这段感情有所顾虑,一直止步不前。老白在家里开设了美术班,教成年人画画,格洛瑞亚(倪虹洁 饰)是他的学生之一。热情奔放的格洛瑞亚虽然已经结婚,但是丈夫远在国外常年不回家,她似乎对老白有着超越了师生的感情。                                    
                                蓓蓓(吴越 饰)是老白的前妻,两人虽然已经离婚多年,而且是蓓蓓背叛了老白,但老白的母亲还是希望两人有朝一日可以复婚。在上海的弄堂里,一个男人和三个女人的故事徐徐拉开序幕。
  1. ##### MediaInfo ######
  2. General
  3. Complete name                            : 爱情神话.B.for.Busy.2021.2160p.WEB-DL.H265.DV.DDP5.1.Atmos-HDBWEB.mp4
  4. Format                                   : MPEG-4
  5. Format profile                           : Base Media / Version 2
  6. Codec ID                                 : mp42 (mp42/iso6/isom/msdh/dby1)
  7. File size                                : 10.9 GiB
  8. Duration                                 : 1 h 52 min
  9. Overall bit rate mode                    : Variable
  10. Overall bit rate                         : 13.9 Mb/s
  11. Encoded date                             : UTC 2022-06-08 09:16:01
  12. Tagged date                              : UTC 2022-06-08 09:16:01
  13. Video
  14. ID                                       : 1
  15. Format                                   : HEVC
  16. Format/Info                              : High Efficiency Video Coding
  17. Format profile                           : Main 10@L5@Main
  18. HDR format                               : Dolby Vision, Version 1.0, dvhe.05.06, BL+RPU
  19. Codec ID                                 : dvhe
  20. Codec ID/Info                            : High Efficiency Video Coding with Dolby Vision
  21. Duration                                 : 1 h 52 min
  22. Bit rate                                 : 13.0 Mb/s
  23. Width                                    : 3 840 pixels
  24. Height                                   : 1 920 pixels
  25. Display aspect ratio                     : 2.000
  26. Frame rate mode                          : Constant
  27. Frame rate                               : 24.000 FPS
  28. Color space                              : YUV
  29. Chroma subsampling                       : 4:2:0
  30. Bit depth                                : 10 bits
  31. Bits/(Pixel*Frame)                       : 0.073
  32. Stream size                              : 10.2 GiB (94%)
  33. Default                                  : Yes
  34. Alternate group                          : 1
  35. Encoded date                             : UTC 2022-06-08 09:16:01
  36. Tagged date                              : UTC 2022-06-08 09:16:01
  37. Color range                              : Full
  38. Codec configuration box                  : hvcC+dvcC
  39. Audio #1
  40. ID                                       : 2
  41. Format                                   : E-AC-3 JOC
  42. Format/Info                              : Enhanced AC-3 with Joint Object Coding
  43. Commercial name                          : Dolby Digital Plus with Dolby Atmos
  44. Codec ID                                 : ac-3
  45. Duration                                 : 1 h 52 min
  46. Bit rate mode                            : Constant
  47. Bit rate                                 : 448 kb/s
  48. Channel(s)                               : 6 channels
  49. Channel layout                           : L R C LFE Ls Rs
  50. Sampling rate                            : 48.0 kHz
  51. Frame rate                               : 31.250 FPS (1536 SPF)
  52. Compression mode                         : Lossy
  53. Stream size                              : 359 MiB (3%)
  54. Language                                 : Chinese
  55. Service kind                             : Complete Main
  56. Default                                  : Yes
  57. Alternate group                          : 2
  58. Encoded date                             : UTC 2022-06-08 09:16:01
  59. Tagged date                              : UTC 2022-06-08 09:16:01
  60. Complexity index                         : Not present / 16
  61. Number of dynamic objects                : 15
  62. Bed channel count                        : 1 channel
  63. Bed channel configuration                : LFE
  64. Audio #2
  65. ID                                       : 3
  66. Format                                   : E-AC-3
  67. Format/Info                              : Enhanced AC-3
  68. Commercial name                          : Dolby Digital Plus
  69. Codec ID                                 : ac-3
  70. Duration                                 : 1 h 52 min
  71. Bit rate mode                            : Constant
  72. Bit rate                                 : 256 kb/s
  73. Channel(s)                               : 6 channels
  74. Channel layout                           : L R C LFE Ls Rs
  75. Sampling rate                            : 48.0 kHz
  76. Frame rate                               : 31.250 FPS (1536 SPF)
  77. Compression mode                         : Lossy
  78. Stream size                              : 205 MiB (2%)
  79. Language                                 : Chinese
  80. Service kind                             : Complete Main
  81. Default                                  : No
  82. Alternate group                          : 2
  83. Encoded date                             : UTC 2022-06-08 09:16:01
  84. Tagged date                              : UTC 2022-06-08 09:16:01
  85. Audio #3
  86. ID                                       : 4
  87. Format                                   : AAC LC
  88. Format/Info                              : Advanced Audio Codec Low Complexity
  89. Codec ID                                 : mp4a-40-2
  90. Duration                                 : 1 h 52 min
  91. Bit rate mode                            : Variable
  92. Bit rate                                 : 192 kb/s
  93. Maximum bit rate                         : 200 kb/s
  94. Channel(s)                               : 2 channels
  95. Channel layout                           : L R
  96. Sampling rate                            : 44.1 kHz
  97. Frame rate                               : 43.066 FPS (1024 SPF)
  98. Compression mode                         : Lossy
  99. Stream size                              : 152 MiB (1%)
  100. Language                                 : Chinese
  101. Default                                  : No
  102. Alternate group                          : 2
  103. Encoded date                             : UTC 2022-06-08 09:16:01
  104. Tagged date                              : UTC 2022-06-08 09:16:01





此处一般会放置磁力链或种子下载链接,不过此链接需要注册会员才能看到,点击“立即注册”
磁力链下载【下载链接仅对注册会员开放,登陆后可见】
BT9527电影天堂 1、BT9527电影天堂提供的BT文件均来源于互联网抓取,只供网友学习交流、技术提升使用。
2、我们遵守BitTorrent点对点协议原则,任何版权问题请联系原资源发布商,我们不处理任何版权纠纷,谢谢!如有争议请联系邮箱:BT9527#hotmail.com(#换成@)
3、如果您发现某页面或地址有错误,请联系站长邮箱BT9527#hotmail.com(#换成@),我们会尽快处理。您的热心是对BT9527电影天堂最大的支持。
4、本站建议去正规影院观看电影以支持电影行业发展。
最新回复 (1)

你可以在 登录 or 注册 后,对此帖发表评论!

返回
发新帖