狙击手[杜比视界版本][国语配音/中文字幕].Snipers.2022.1080p.WEB-DL.H265.DV.AAC-HDBWEB 2.77GB

版主小s 3月前 244

✔资源类型:WEB-1080P   ✔电影年份:2022   ✔电影地区:大陆   ✔电影分类:剧情

◎标  题 狙击手
◎译  名 最冷的枪 / Snipers
◎年  代 2022
◎产  地 中国大陆
◎类  别 剧情 / 历史 / 战争
◎语  言 汉语普通话 / 英语
◎上映日期 2022-02-01(中国大陆)
◎IMDb评分 6.5/10 (566人评价)
◎IMDb链接 https://www.imdb.com/title/tt13317320/
◎豆瓣评分 7.7/10 (272008人评价)
◎豆瓣链接 https://movie.douban.com/subject/35215390/
◎片  长 96分钟
◎导  演 张艺谋 Yimou Zhang
       张末 Mo Zhang
◎编  剧 陈宇 Yu Chen
◎演  员 陈永胜 Yongsheng Chen
       章宇 Yu Zhang
       张译 Yi Zhang
       刘奕铁 Yitie Liu
       黄炎 Yan Huang
       王梓屹 Ziyi Wang
       陈铭杨 Mingyang Chen
       王乃训 Naixun Wang
       程泓鑫 Hongxin Cheng
       赵琥成 Hucheng Zhao
       李汶聪 Wencong Li
       林博洋 Boyang Lin
       王佑名 Youming Wang
       代文博 Wenbo Dai
       李昆 Kun Li
       曹操 Jonathan Kos-Read
       柯国庆 Scotty Cox
       钱焜 Nathaniel Boyd
       暗真 AJ Donnelly
       柯南·何裴 Kenan Heppe
       李凯文 Kevin Lee
       勃小龙 Pierre Bourdaud
       孟丹青 Daniel Wade Manwaring
       叶风光 Kenton Van Dunk
       庞丽薇 Liwei Pang
       曹晓北 Xiaobei Cao
       赵小丁 Xiaoding Zhao
       李永一 Yongyi Li
       林木 Lin Mu
       陈敏正 Minzheng Chen
       赵楠 Nan Zhao
       杨江 Jiang Yang
       傅小杰 Xiaojie Fu

◎简  介
  影片根据抗美援朝战争“冷枪冷炮”运动中神枪手群体事迹改编。1952年冬至1953年初,中国人民志愿军与联合国军在朝鲜战场形成僵持,双方发起了低强度的密集狙击战,史称"冷枪冷炮运动"。在连长(张译 饰)带领下的狙击五班战士枪法过人,成为敌军的心头大患,班长刘文武(章宇 饰)更成为重点狙击对象。为重创狙击五班,敌方调配精英狙击小队,配以最先进的武器装备,更迫使狙击五班战士大永(陈永胜 饰)等人为救同伴进入其设好的险境之地。但正当敌军打响自己如意算盘之时,他们未料到,被他们当作诱饵的侦察兵亮亮(刘奕铁 饰)身上其实隐藏着更大的秘密......
  1. ##### MediaInfo ######
  2. General
  3. Complete name                            : 狙击手.Snipers.2022.1080p.WEB-DL.H265.DV.AAC-HDBWEB.mp4
  4. Format                                   : MPEG-4
  5. Format profile                           : Base Media / Version 2
  6. Codec ID                                 : mp42 (mp42/iso6/isom/msdh/dby1)
  7. File size                                : 2.77 GiB
  8. Duration                                 : 1 h 35 min
  9. Overall bit rate mode                    : Variable
  10. Overall bit rate                         : 4 132 kb/s
  11. Encoded date                             : UTC 2022-06-06 02:06:57
  12. Tagged date                              : UTC 2022-06-06 02:06:57
  13. Video
  14. ID                                       : 1
  15. Format                                   : HEVC
  16. Format/Info                              : High Efficiency Video Coding
  17. Format profile                           : Main 10@L4@Main
  18. HDR format                               : Dolby Vision, Version 1.0, dvhe.05.03, BL+RPU
  19. Codec ID                                 : dvhe
  20. Codec ID/Info                            : High Efficiency Video Coding with Dolby Vision
  21. Duration                                 : 1 h 35 min
  22. Bit rate                                 : 3 874 kb/s
  23. Width                                    : 1 920 pixels
  24. Height                                   : 808 pixels
  25. Original height                          : 804 pixels
  26. Display aspect ratio                     : 2.40:1
  27. Frame rate mode                          : Constant
  28. Frame rate                               : 24.000 FPS
  29. Color space                              : YUV
  30. Chroma subsampling                       : 4:2:0
  31. Bit depth                                : 10 bits
  32. Bits/(Pixel*Frame)                       : 0.104
  33. Stream size                              : 2.60 GiB (94%)
  34. Default                                  : Yes
  35. Alternate group                          : 1
  36. Encoded date                             : UTC 2022-06-06 02:06:57
  37. Tagged date                              : UTC 2022-06-06 02:06:57
  38. Color range                              : Full
  39. Codec configuration box                  : hvcC+dvcC
  40. Audio
  41. ID                                       : 2
  42. Format                                   : AAC LC
  43. Format/Info                              : Advanced Audio Codec Low Complexity
  44. Codec ID                                 : mp4a-40-2
  45. Duration                                 : 1 h 35 min
  46. Bit rate mode                            : Variable
  47. Bit rate                                 : 253 kb/s
  48. Maximum bit rate                         : 258 kb/s
  49. Channel(s)                               : 2 channels
  50. Channel layout                           : L R
  51. Sampling rate                            : 48.0 kHz
  52. Frame rate                               : 46.875 FPS (1024 SPF)
  53. Compression mode                         : Lossy
  54. Stream size                              : 174 MiB (6%)
  55. Language                                 : Chinese
  56. Default                                  : Yes
  57. Alternate group                          : 2
  58. Encoded date                             : UTC 2022-06-06 02:06:57
  59. Tagged date                              : UTC 2022-06-06 02:06:57





此处一般会放置磁力链或种子下载链接,不过此链接需要注册会员才能看到,点击“立即注册”
磁力链下载【下载链接仅对注册会员开放,登陆后可见】
BT9527电影天堂 1、BT9527电影天堂提供的BT文件均来源于互联网抓取,只供网友学习交流、技术提升使用。
2、我们遵守BitTorrent点对点协议原则,任何版权问题请联系原资源发布商,我们不处理任何版权纠纷,谢谢!如有争议请联系邮箱:BT9527#hotmail.com(#换成@)
3、如果您发现某页面或地址有错误,请联系站长邮箱BT9527#hotmail.com(#换成@),我们会尽快处理。您的热心是对BT9527电影天堂最大的支持。
4、本站建议去正规影院观看电影以支持电影行业发展。
最新回复 (1)

你可以在 登录 or 注册 后,对此帖发表评论!

返回
发新帖