移情高手[国语配音/中文字幕].Empathic.Master.2021.2160p.WEB-DL.H264.DDP5.1-HDBWEB 16.72GB

版主小s 12天前 52

✔资源类型:4K   ✔电影年份:2021   ✔电影地区:大陆   ✔电影分类:喜剧

◎标  题 移情高手
◎译  名 移情大师
◎年  代 2021
◎产  地 中国大陆
◎类  别 喜剧 / 爱情
◎语  言 汉语普通话
◎上映日期 2021-01-29(中国大陆)
◎IMDb链接 https://www.imdb.com/title//
◎豆瓣评分 3.2/10 (1455人评价)
◎豆瓣链接 https://movie.douban.com/subject/30476403/
◎片  长 97分钟
◎导  演 郑来志 Laizhi Zheng
◎编  剧 郑来志 Laizhi Zheng
       刘宇 Yu Liu
       杨啸 Xiao Yang
       孙天禾 Tianhe Sun
◎演  员 王智 Zhi Wang
       高晓攀 Xiaopan Gao
       于莎莎 Shasha Yu
       衣云鹤 Yunhe Yi
       黄奕 Yi Huang
       迟帅 Shuai Chi
       吕颂贤 Jackie Lui Chung-yin
       颜丹晨 Danchen Yan
       克拉拉 Clara Lee
       巴多 Duo Ba
       谭飞 Fei Tan

◎简  介
    陈俊飞和团队以帮助客户解决婚姻情感中的问题而混的风生水起。为了完成一个叫单卓的美女客户委托,陈俊飞亲自下场假冒算命大师伪装明星助理套路满满,对单卓死缠烂打。不料接二连三的麻烦接踵而来,号称移情高手的陈俊飞发现这一次的委托绝对没那么简单。
  1. ##### MediaInfo ######
  2. General
  3. Complete name                            : 移情高手.Empathic.Master.2021.2160p.WEB-DL.H264.DDP5.1-HDBWEB.mp4
  4. Format                                   : MPEG-4
  5. Format profile                           : Base Media
  6. Codec ID                                 : isom (isom/dby1/iso2/avc1/mp41)
  7. File size                                : 16.7 GiB
  8. Duration                                 : 1 h 34 min
  9. Overall bit rate mode                    : Variable
  10. Overall bit rate                         : 25.2 Mb/s
  11. Writing application                      : OurTV Multimedia Platform
  12. Video
  13. ID                                       : 1
  14. Format                                   : AVC
  15. Format/Info                              : Advanced Video Codec
  16. Format profile                           : High@L5.1
  17. Format settings                          : CABAC / 3 Ref Frames
  18. Format settings, CABAC                   : Yes
  19. Format settings, Reference frames        : 3 frames
  20. Format settings, GOP                     : M=4, N=50
  21. Codec ID                                 : avc1
  22. Codec ID/Info                            : Advanced Video Coding
  23. Duration                                 : 1 h 34 min
  24. Bit rate mode                            : Variable
  25. Bit rate                                 : 24.8 Mb/s
  26. Maximum bit rate                         : 31.2 Mb/s
  27. Width                                    : 3 840 pixels
  28. Height                                   : 2 160 pixels
  29. Display aspect ratio                     : 16:9
  30. Frame rate mode                          : Constant
  31. Frame rate                               : 25.000 FPS
  32. Color space                              : YUV
  33. Chroma subsampling                       : 4:2:0
  34. Bit depth                                : 8 bits
  35. Scan type                                : Progressive
  36. Bits/(Pixel*Frame)                       : 0.120
  37. Stream size                              : 16.5 GiB (98%)
  38. Codec configuration box                  : avcC
  39. Audio #1
  40. ID                                       : 2
  41. Format                                   : E-AC-3
  42. Format/Info                              : Enhanced AC-3
  43. Commercial name                          : Dolby Digital Plus
  44. Codec ID                                 : ec-3
  45. Duration                                 : 1 h 34 min
  46. Bit rate mode                            : Constant
  47. Bit rate                                 : 192 kb/s
  48. Channel(s)                               : 6 channels
  49. Channel layout                           : L R C LFE Ls Rs
  50. Sampling rate                            : 48.0 kHz
  51. Frame rate                               : 31.250 FPS (1536 SPF)
  52. Compression mode                         : Lossy
  53. Stream size                              : 130 MiB (1%)
  54. Title                                    : 国语DDP5.1
  55. Language                                 : Chinese
  56. Service kind                             : Complete Main
  57. Default                                  : Yes
  58. Alternate group                          : 1
  59. Audio #2
  60. ID                                       : 3
  61. Format                                   : AAC LC
  62. Format/Info                              : Advanced Audio Codec Low Complexity
  63. Codec ID                                 : mp4a-40-2
  64. Duration                                 : 1 h 34 min
  65. Bit rate mode                            : Variable
  66. Bit rate                                 : 192 kb/s
  67. Channel(s)                               : 2 channels
  68. Channel layout                           : L R
  69. Sampling rate                            : 48.0 kHz
  70. Frame rate                               : 46.875 FPS (1024 SPF)
  71. Compression mode                         : Lossy
  72. Stream size                              : 129 MiB (1%)
  73. Title                                    : 国语AAC2.0
  74. Language                                 : Chinese
  75. Default                                  : No
  76. Alternate group                          : 1





此处一般会放置磁力链或种子下载链接,不过此链接需要注册会员才能看到,点击“立即注册”
磁力链下载【下载链接仅对注册会员开放,登陆后可见】
BT9527电影天堂 1、BT9527电影天堂提供的BT文件均来源于互联网抓取,只供网友学习交流、技术提升使用。
2、我们遵守BitTorrent点对点协议原则,任何版权问题请联系原资源发布商,我们不处理任何版权纠纷,谢谢!如有争议请联系邮箱:BT9527#hotmail.com(#换成@)
3、如果您发现某页面或地址有错误,请联系站长邮箱BT9527#hotmail.com(#换成@),我们会尽快处理。您的热心是对BT9527电影天堂最大的支持。
4、本站建议去正规影院观看电影以支持电影行业发展。
最新回复 (1)

你可以在 登录 or 注册 后,对此帖发表评论!

返回
发新帖