超越[杜比视界版本][国语配音/中文字幕].Never.Stop.2021.2160p.WEB-DL.H265.DV.DDP5.1.Atmos-HDBWEB 7.71GB

版主小s 3月前 185

✔资源类型:4K   ✔电影年份:2021   ✔电影地区:大陆   ✔电影分类:剧情

◎译  名 超越 / 极速超越 / Never Stop
◎年  代 2021
◎产  地 中国大陆
◎类  别 剧情 / 喜剧 / 运动
◎语  言 汉语普通话
◎上映日期 2021-06-12(中国大陆)
◎IMDb链接 https://www.imdb.com/title/tt14778138/
◎豆瓣评分 5.0/10 (35740人评价)
◎豆瓣链接 https://movie.douban.com/subject/34917447/
◎片  长 98分钟
◎导  演 韩博文 Bowen Han (id:1378773)
◎编  剧 甲子复 Zifu Jia (id:1455382)
◎演  员 郑恺 Kai Zheng (id:1275564)
       李昀锐 Yunrui Li (id:1390859)
       曹炳琨 Bingkun Cao (id:1313383)
       张蓝心 Lanxin Zhang (id:1324267)
       张榕容 Sandrine Pinna (id:1226703)
       李晨 Chen Li (id:1274252)
       金靖 Jing Jin (id:1376274)
       李宁 Ning Li (id:1052811)
       田雨 Yu Tian (id:1316331)
       范志毅 Zhiyi Fan (id:1319964)
       曾文铄 Wenshuo Zeng (id:1464107)
       郑恺 Kai Zheng (id:1275564)
       王中军 Zhongjun Wang (id:1276036)
       黄永峰 Yongfeng Huang (id:1455383)
       白雪 Xue Bai (id:1455384)
       李捷 Jie Li (id:1403835)
       张勇 Yong Zhang (id:1417892)
       丁颂易 Songyi Ding (id:1455385)
       王中磊 Zhonglei Wang (id:1276037)
       张大军 Dajun Zhang (id:1412558)
       孙赫 He Sun (id:1455386)
       卢希 Xi Lu (id:1455387)
       葛倩雯 Qianwen Ge (id:1455388)
       程倩 Qian Cheng (id:1455389)
       邓志玲 Zhiling Deng (id:1455390)
       田鸿硕 Hongshuo Tian (id:1455391)
       周欣 Xin Zhou (id:1455392)
       王翎霁 Lingji Wang (id:1455395)
       耿磊 Lei Geng (id:1455396)
       董冬冬 Dongdong Dong (id:1348747)
       刘帆 Fan Liu (id:1455397)
       王媛 Yuan Wang (id:1455399)
       王竞 Jing Wang (id:1409414)
       于晓溪 Xiaoxi Yu (id:1455398)
       吴佰嶬 Baiyi Wu (id:1455401)
       李牧衡 Muheng Li (id:1455402)
       郑希 Xi Zheng (id:1384856)
       郭宏伟 Hongwei Guo (id:1455400)
       王冲 Chong Wang (id:1388363)
       宋鹏 Peng Song (id:1455404)
       张壹鸣 Yiming Zhang (id:1455405)
       孙景岩 Jingyan Sun (id:1371119)
       袁国强 Guoqiang Yuan (id:1455406)
       许艺军 Yijun Xu (id:1455407)
       李稳能 Wenneng Li (id:1455408)

◎简  介
  百米冠军吴添翼(李昀锐 饰)为解开无法战胜老飞人郝超越(郑恺 饰)的心结而返乡,不料郝超越早已沉沦,逃避最爱的跑步事业,更处心积虑利用吴添翼谋利。师兄弟二人的较量从回忆中的跑道延伸进现实生活,历经误会和冲突,最终冰释前嫌并互相治愈······

◎获奖情况 (共2项)
  第24届上海国际电影节 (2021)
  电影频道传媒大奖 最受传媒关注新人男演员
   └──李昀锐 (id:1390859)

  第13届澳门国际电影节 (2021)
  金莲花奖 最佳男主角(提名)
   └──郑恺 (id:1275564)

  1. ##### MediaInfo ######
  2. General
  3. Complete name                            : 超越.Never.Stop.2021.2160p.WEB-DL.H265.DV.DDP5.1.Atmos-HDBWEB.mp4
  4. Format                                   : MPEG-4
  5. Format profile                           : Base Media / Version 2
  6. Codec ID                                 : mp42 (mp42/iso6/isom/msdh/dby1)
  7. File size                                : 7.71 GiB
  8. Duration                                 : 1 h 37 min
  9. Overall bit rate                         : 11.3 Mb/s
  10. Encoded date                             : UTC 2022-06-08 03:56:15
  11. Tagged date                              : UTC 2022-06-08 03:56:15
  12. Video
  13. ID                                       : 1
  14. Format                                   : HEVC
  15. Format/Info                              : High Efficiency Video Coding
  16. Format profile                           : Main 10@L5@Main
  17. HDR format                               : Dolby Vision, Version 1.0, dvhe.05.06, BL+RPU
  18. Codec ID                                 : dvhe
  19. Codec ID/Info                            : High Efficiency Video Coding with Dolby Vision
  20. Duration                                 : 1 h 37 min
  21. Bit rate                                 : 10.9 Mb/s
  22. Width                                    : 3 840 pixels
  23. Height                                   : 1 600 pixels
  24. Display aspect ratio                     : 2.40:1
  25. Frame rate mode                          : Constant
  26. Frame rate                               : 24.000 FPS
  27. Color space                              : YUV
  28. Chroma subsampling                       : 4:2:0
  29. Bit depth                                : 10 bits
  30. Bits/(Pixel*Frame)                       : 0.074
  31. Stream size                              : 7.41 GiB (96%)
  32. Default                                  : Yes
  33. Alternate group                          : 1
  34. Encoded date                             : UTC 2022-06-08 03:56:15
  35. Tagged date                              : UTC 2022-06-08 03:56:15
  36. Color range                              : Full
  37. Codec configuration box                  : hvcC+dvcC
  38. Audio
  39. ID                                       : 2
  40. Format                                   : E-AC-3 JOC
  41. Format/Info                              : Enhanced AC-3 with Joint Object Coding
  42. Commercial name                          : Dolby Digital Plus with Dolby Atmos
  43. Codec ID                                 : ac-3
  44. Duration                                 : 1 h 37 min
  45. Bit rate mode                            : Constant
  46. Bit rate                                 : 448 kb/s
  47. Channel(s)                               : 6 channels
  48. Channel layout                           : L R C LFE Ls Rs
  49. Sampling rate                            : 48.0 kHz
  50. Frame rate                               : 31.250 FPS (1536 SPF)
  51. Compression mode                         : Lossy
  52. Stream size                              : 312 MiB (4%)
  53. Language                                 : Chinese
  54. Service kind                             : Complete Main
  55. Default                                  : Yes
  56. Alternate group                          : 2
  57. Encoded date                             : UTC 2022-06-08 03:56:15
  58. Tagged date                              : UTC 2022-06-08 03:56:15
  59. Complexity index                         : Not present / 16
  60. Number of dynamic objects                : 15
  61. Bed channel count                        : 1 channel
  62. Bed channel configuration                : LFE





此处一般会放置磁力链或种子下载链接,不过此链接需要注册会员才能看到,点击“立即注册”
磁力链下载【下载链接仅对注册会员开放,登陆后可见】
BT9527电影天堂 1、BT9527电影天堂提供的BT文件均来源于互联网抓取,只供网友学习交流、技术提升使用。
2、我们遵守BitTorrent点对点协议原则,任何版权问题请联系原资源发布商,我们不处理任何版权纠纷,谢谢!如有争议请联系邮箱:BT9527#hotmail.com(#换成@)
3、如果您发现某页面或地址有错误,请联系站长邮箱BT9527#hotmail.com(#换成@),我们会尽快处理。您的热心是对BT9527电影天堂最大的支持。
4、本站建议去正规影院观看电影以支持电影行业发展。
最新回复 (1)

你可以在 登录 or 注册 后,对此帖发表评论!

返回