鲛珠传[国语配音/中文字幕].Legend.Of.The.Naga.Pearls.2017.1080p.WEB-DL.H265.DDP5.1.Atmos-HDBWEB 2.88GB

版主小s 21天前 49

✔资源类型:WEB-1080P   ✔电影年份:2017   ✔电影地区:大陆   ✔电影分类:喜剧

◎译  名 鲛珠传 / Legend of the Naga Pearls
◎年  代 2017
◎产  地 中国大陆 / 中国香港
◎类  别 喜剧 / 动作 / 爱情 / 奇幻
◎语  言 汉语普通话
◎上映日期 2017-08-11(中国大陆)
◎IMDb链接 https://www.imdb.com/title/tt6288650/
◎豆瓣评分 4.2/10 (38977人评价)
◎豆瓣链接 https://movie.douban.com/subject/25857966/
◎片  长 108分钟
◎导  演 杨磊 Lei Yang (id:1321964)
◎编  剧 张炭 Cheung Tan (id:1313457)
       徐照青 Zhaoqing Xu (id:1367427)
       杨磊 Lei Yang (id:1321964)
◎演  员 王大陆 Talu Wang (id:1341187)
       张天爱 Tian'ai Zhang (id:1353578)
       任达华 Simon Yam (id:1031194)
       盛冠森 Guansen Sheng (id:1362832)
       王迅 Xun Wang (id:1317139)
       赵健 Jian Zhao (id:1353519)
       刘俊孝 Dean Liu (id:1345803)
       释彦能 Yanneng Shi (id:1202926)
       胡兵 Hu Bing (id:1313641)
       何穗 Sui He (id:1316769)
       蒋璐霞 Luxia Jiang (id:1313597)
       杜奕衡 John Do (id:1275965)
       周一围 Yiwei Zhou (id:1276085)
       杨乾龙 Qianlong Yang (id:1403619)
       吴了了 Liaoliao Wu (id:1410869)
       程枫 Feng Cheng (id:1378599)
       达来哈里呼 Dalai Harihu (id:1441637)
       王齐 Qi Wang (id:1458504)
       刘邦邦  (id:1464007)
       杨青竹 Qingzhu Yang (id:1403618)
       法志远 Zhiyuan Fa (id:1403617)
       陈喆伦 Zhelun Chen (id:1374384)
       陆婧希 Jingxi Lu (id:1463187)
       樊斐斐 Feifei Fan (id:1378119)
       陈嘉上 Gordon Chan (id:1274245)
       藤原育郎 Ikuro Fujiwara (id:1312594)
       黄岳泰 Arthur Wong (id:1301185)
       麦国强 Kenneth Mak (id:1290782)
       王宇 Yu Wang (id:1352980)
       梁婷婷 Tingting Liang (id:1359356)
       赵燕红 Yanhong Zhao (id:1400751)
       谷轩昭 Huan-Chiu Ku (id:1289063)

◎简  介
  故事发生在九州,一个聪明的贼(王大陆 饰)、一个尽职的捕快(张天爱 饰)和一个单纯的王子(盛冠森 饰),一次偶然的相遇。三个人有着各自不同的目的,互相不信任,却不得不共同进入一段奇特的旅行。在旅行中,三个人都从对方的身上找到了友谊和爱,最终阻止一次毁灭世界的阴谋。
  1. ##### MediaInfo ######
  2. General
  3. Complete name                            : 鲛珠传.Legend.Of.The.Naga.Pearls.2017.1080p.WEB-DL.H265.DDP5.1.Atmos-HDBWEB.mp4
  4. Format                                   : MPEG-4
  5. Format profile                           : Base Media / Version 2
  6. Codec ID                                 : mp42 (mp42/iso6/isom/msdh/dby1)
  7. File size                                : 2.88 GiB
  8. Duration                                 : 1 h 48 min
  9. Overall bit rate                         : 3 810 kb/s
  10. Encoded date                             : UTC 2022-06-08 01:52:27
  11. Tagged date                              : UTC 2022-06-08 01:52:27
  12. Video
  13. ID                                       : 1
  14. Format                                   : HEVC
  15. Format/Info                              : High Efficiency Video Coding
  16. Format profile                           : Main 10@L4@Main
  17. HDR format                               : Dolby Vision, Version 1.0, dvhe.04.06, EL+RPU
  18. Codec ID                                 : hev1
  19. Codec ID/Info                            : High Efficiency Video Coding
  20. Duration                                 : 1 h 48 min
  21. Bit rate                                 : 3 359 kb/s
  22. Width                                    : 1 920 pixels
  23. Height                                   : 1 080 pixels
  24. Display aspect ratio                     : 16:9
  25. Frame rate mode                          : Constant
  26. Frame rate                               : 24.000 FPS
  27. Color space                              : YUV
  28. Chroma subsampling                       : 4:2:0
  29. Bit depth                                : 10 bits
  30. Bits/(Pixel*Frame)                       : 0.067
  31. Stream size                              : 2.54 GiB (88%)
  32. Default                                  : Yes
  33. Alternate group                          : 1
  34. Encoded date                             : UTC 2022-06-08 01:52:27
  35. Tagged date                              : UTC 2022-06-08 01:52:27
  36. Color range                              : Full
  37. Codec configuration box                  : hvcC+dvcC
  38. Audio
  39. ID                                       : 2
  40. Format                                   : E-AC-3 JOC
  41. Format/Info                              : Enhanced AC-3 with Joint Object Coding
  42. Commercial name                          : Dolby Digital Plus with Dolby Atmos
  43. Codec ID                                 : ac-3
  44. Duration                                 : 1 h 48 min
  45. Bit rate mode                            : Constant
  46. Bit rate                                 : 448 kb/s
  47. Channel(s)                               : 6 channels
  48. Channel layout                           : L R C LFE Ls Rs
  49. Sampling rate                            : 48.0 kHz
  50. Frame rate                               : 31.250 FPS (1536 SPF)
  51. Compression mode                         : Lossy
  52. Stream size                              : 346 MiB (12%)
  53. Language                                 : Chinese
  54. Service kind                             : Complete Main
  55. Default                                  : Yes
  56. Alternate group                          : 2
  57. Encoded date                             : UTC 2022-06-08 01:52:27
  58. Tagged date                              : UTC 2022-06-08 01:52:27
  59. Complexity index                         : Not present / 16
  60. Number of dynamic objects                : 15
  61. Bed channel count                        : 1 channel
  62. Bed channel configuration                : LFE





此处一般会放置磁力链或种子下载链接,不过此链接需要注册会员才能看到,点击“立即注册”
磁力链下载【下载链接仅对注册会员开放,登陆后可见】
BT9527电影天堂 1、BT9527电影天堂提供的BT文件均来源于互联网抓取,只供网友学习交流、技术提升使用。
2、我们遵守BitTorrent点对点协议原则,任何版权问题请联系原资源发布商,我们不处理任何版权纠纷,谢谢!如有争议请联系邮箱:BT9527#hotmail.com(#换成@)
3、如果您发现某页面或地址有错误,请联系站长邮箱BT9527#hotmail.com(#换成@),我们会尽快处理。您的热心是对BT9527电影天堂最大的支持。
4、本站建议去正规影院观看电影以支持电影行业发展。
最新回复 (1)

你可以在 登录 or 注册 后,对此帖发表评论!

返回
发新帖